Today is a free download without charge Download

Ночные ласточки / Сезон: 01 / Серии: 01-02 из 08 (Михаил Кабанов) [2012, Боевик, мелодрама, HDTV, FULL HD 1080i]

Reply to topic
 
Author
Message

Omen ®

Longevity: 8 years 11 months

Posts: 181086

Торрент-статистика

Post 29-Jan-2013 00:48

[Quote]

Ночные ласточки
Год выпуска: 2012
Производство: STAR MEDIA
Жанр: Боевик, мелодрама
Продолжительность: ~ 00:45:00
Субтитры: Отсутствуют
Режиссёр: Михаил Кабанов
В ролях: Татьяна Арнтгольц (Евгения Звонарева), Денис Никифоров (Александр Макеев), Елизавета Нилова (Галина), Михаил Евланов (Пивень), Евгений Ганелин (Анатолий Паленко), Игорь Савочкин (Петр Соловьев), Анатолий Пашинин (Куракин), Екатерина Олькина (Семенова), Мария Пирогова (Солышко), Олеся Фаттахова (Зина Липко) и другие.
Описание: В годы Великой Отечественной войны в рядах Красной Армии, наравне с мужчинами, сражалось около 600 000 женщин. Много женщин было и в авиации: лётчицы, штурманы, стрелки — радисты, вооруженцы… При этом, женщины — авиаторы сражались как в составах обычных «мужских» авиационных полков, так и отдельных «женских». О некоторых наиболее известных лётчицах, об истории создания и боевом пути женских авиационных полков, и будет этот рассказ…
Все раздачи сериала: http:///*spam*//forum/tracker.php?nm=%CD%EE%F7...1%F2%EE%F7%EA%E8
Сэмпл: http://multi-up.com/823766
Доп. информация: Релиз -

Рип чистый. Без посторонних надписей. Выкладывается как есть.
Качество: HDTV 1080i
Контейнер: TS
Видео кодек: AVC
Аудио кодек: AC3
Видео: 1920x1080 (16:9) 25.000 fps 7 838 Kbps, 0.151 bit/pixel
Аудио 1: MPEG Audio 48000Hz stereo 192 Кбит/сек
Аудио 2: AC3 256 Kbps, 2 channels

Скриншоты


MI

GeneralID : 1 (0x1)Complete name : H:\ВЫКЛАДКА\HDTV\Сериалы\Ночные ласточки (2012, Сериал, Боевик, Мелодрама, HDTV) (MYDIMKA)\01 серия.tsFormat : MPEG-TSFile size : 2.52 GiBDuration : 41mn 11sOverall bit rate mode : VariableOverall bit rate : 8 754 Kbps
VideoID : 2931 (0xB73)Menu ID : 1 (0x1)Format : AVCFormat/Info : Advanced Video CodecFormat profile : [email protected] settings, CABAC : YesFormat settings, ReFrames : 4 framesCodec ID : 27Duration : 41mn 11sBit rate : 7 869 KbpsWidth : 1 920 pixelsHeight : 1 080 pixelsDisplay aspect ratio : 16:9Frame rate : 25.000 fpsColor space : YUVChroma subsampling : 4:2:0Bit depth : 8 bitsScan type : MBAFFBits/(Pixel*Frame) : 0.152Stream size : 2.26 GiB (90%)
Audio #1ID : 2932 (0xB74)Menu ID : 1 (0x1)Format : MPEG AudioFormat version : Version 1Format profile : Layer 2Mode : Joint stereoMode extension : Intensity Stereo + MS StereoCodec ID : 3Duration : 41mn 11sBit rate mode : ConstantBit rate : 192 KbpsChannel(s) : 2 channelsSampling rate : 48.0 KHzCompression mode : LossyStream size : 56.6 MiB (2%)Language : Russian
Audio #2ID : 2933 (0xB75)Menu ID : 1 (0x1)Format : E-AC-3Format/Info : Audio Coding 3Format settings, Endianness : BigCodec ID : 6Duration : 41mn 11sBit rate mode : ConstantBit rate : 256 KbpsChannel(s) : 2 channelsChannel positions : Front: L RSampling rate : 48.0 KHzCompression mode : LossyStream size : 75.4 MiB (3%)Language : English

Внимание! Раздача ведётся путём добавления новых выпусков

Внимание! Раздача ведётся путём добавления новых выпусков; при каждом добавлении создётся новый торрент. Чтобы начать докачку нового выпуска, пользователям необходимо сделать следующее:
(1) остановить скачивание,
(2) удалить старый торрент у себя из клиента (старые выпуски удалять не надо),
(3) скачать новый торрент и запустить его у себя в клиенте вместо старого, при этом указать клиенту путь в старую папку куда и должно происходить скачивание новых выпусков.
Ваш клиент при этом должен произвести хеширование (проверку) старой папки (если не производит сам - помогите ему сделать это), и будет докачивать только те выпуски которых у вас ещё нет. Старые выпуски при этом не удаляются, а продолжают раздаваться!
Eсли вы уже удалили старые выпуски, то предотвратить повторную закачку старых выпусков можно, отжав галочку в соответсвующих местах при запуске нового торрента. По возможности, желательно не удалять старые выпуски как можно дольше чтобы релизёр не столько продолжал раздавать старые выпуски, а смог сконцентрироваться на новых.
Other forum [Profile] [PM]
Display posts from previous:    
Reply to topic

The time now is: Today 14:52

All times are GMT + 3 Hours



You cannot post new topics in this forum
You cannot reply to topics in this forum
You cannot edit your posts in this forum
You cannot delete your posts in this forum
You cannot vote in polls in this forum
You cannot attach files in this forum
You cannot download files in this forum