Today is a free download without charge Download

Одинокий волк / Сезон: 1 / Серии: 1-2 из 24 (Александр Кулямин) [2012, Боевик, SATRip]

Reply to topic
 
Author
Message

Omen ®

Longevity: 8 years 11 months

Posts: 181086

Торрент-статистика

Post 29-Jan-2013 00:48

[Quote]

Одинокий волк
Год выпуска: 2012
Производство: Россия, Кинокомпания город
Жанр: Боевик
Продолжительность: 2 x 00:42:15
Субтитры: нет
Режиссёр: Александр Кулямин
В ролях: Максим Щеголев, Геннадий Шныптев, Дмитрий Митюрич, Владимир Лысенко, Иннокентий Тарабара, Алена Олькина, Карина Реука, Бесо Гатаев, Виктор Балабанов, Анна Потапова, Надежда Бахтина, Валерий Николаев, Игорь Верник, Алексей Секирин, Максим Дрозд, Евдокия Чумакова, Анна Кузьмина, Ольга Житник, Антон Торопов, Виктория Куликова
Описание: Трудно жить с человеком, у которого чрезвычайно сложный характер, которого никто не может сломать и ущемить, который ни перед каким предлогом не уступает и не идет даже на самые небольшие поступки. В народе подобных людей называют волками. Однако как часто случается, их никто не окружает особо, поскольку они одинокие волки. Это история о сильном, мужественно и временами сложном характере.
Огромное спасибо posters-ks за предоставленный постер.
Все раздачи сериала: http:///*spam*//forum/tracker.php?f=9&nm=%...%E9+%E2%EE%EB%EA
Сэмпл: http://multi-up.com/823705
Качество: SATRip
Формат: AVI
Видео кодек: XviD
Аудио кодек: MP3
Видео: Video: 720x400 (1.80:1), 25 fps, XviD build 50 ~1617 kbps avg, 0.22 bit/pixel
Аудио: Audio: 48 kHz, MPEG Layer 3, 2 ch, ~192.00 kbps avg
Релиз от -

MI

General
Complete name : W:\ftp4\Videos\Odinokiy.volk.2013.XviD.SATRip-files-x\Odinokiy.volk.01.seriya.2013.XviD.SATRip-files-x.avi
Format : AVI
Format/Info : Audio Video Interleave
File size : 550 MiB
Duration : 42mn 15s
Overall bit rate : 1 820 Kbps
Writing application : VirtualDubMod 1.5.10.3 | www.virtualdub-fr.org || (build 2550/release)
Writing library : VirtualDubMod build 2550/release
Video
ID : 0
Format : MPEG-4 Visual
Format profile : Advanced [email protected]
Format settings, BVOP : 1
Format settings, QPel : No
Format settings, GMC : No warppoints
Format settings, Matrix : Default (H.263)
Codec ID : XVID
Codec ID/Hint : XviD
Duration : 42mn 15s
Bit rate : 1 618 Kbps
Width : 720 pixels
Height : 400 pixels
Display aspect ratio : 16:9
Frame rate : 25.000 fps
Color space : YUV
Chroma subsampling : 4:2:0
Bit depth : 8 bits
Scan type : Progressive
Compression mode : Lossy
Bits/(Pixel*Frame) : 0.225
Stream size : 489 MiB (89%)
Writing library : XviD 1.2.1 (UTC 2008-12-04)
Audio
ID : 1
Format : MPEG Audio
Format version : Version 1
Format profile : Layer 3
Codec ID : 55
Codec ID/Hint : MP3
Duration : 42mn 15s
Bit rate mode : Constant
Bit rate : 192 Kbps
Channel(s) : 2 channels
Sampling rate : 48.0 KHz
Compression mode : Lossy
Stream size : 58.0 MiB (11%)
Alignment : Aligned on interleaves
Interleave, duration : 40 ms (1.00 video frame)
Interleave, preload duration : 504 ms
Writing library : LAME3.98r
Encoding settings : -m s -V 4 -q 2 -lowpass 18.6 -b 192

Скриншоты

Раздача ведется путем добавления новых серий

Внимание! Раздача ведётся путём добавления новых серий; при каждом добавлении создётся новый торрент. Чтобы начать докачку новой серии, пользователям необходимо сделать следующее:
(1) остановить скачивание,
(2) удалить старый торрент у себя из клиента (старые серии удалять не надо),
(3) скачать новый торрент и запустить его у себя в клиенте вместо старого, при этом указать клиенту путь в старую папку куда и должно происходить скачивание новых серий.
Ваш клиент при этом должен произвести хеширование (проверку) старой папки (если не производит сам - помогите ему сделать это), и будет докачивать только те серии которых у вас ещё нет. Старые серии при этом не удаляются, а продолжают раздаваться!
Eсли вы уже удалили старые серии, то предотвратить повторную закачку старых серий можно, отжав галочку в соответствующих местах при запуске нового торрента.
Other forum [Profile] [PM]
Display posts from previous:    
Reply to topic

The time now is: Today 13:55

All times are GMT + 3 Hours



You cannot post new topics in this forum
You cannot reply to topics in this forum
You cannot edit your posts in this forum
You cannot delete your posts in this forum
You cannot vote in polls in this forum
You cannot attach files in this forum
You cannot download files in this forum