Today is a free download without charge Download

Ночные ласточки / Сезон: 01 / Серии: 01-02 из 08 (Михаил Кабанов) [2012, Боевик, мелодрама, DVB]

Reply to topic
 
Author
Message

Omen ®

Longevity: 8 years 11 months

Posts: 181086

Торрент-статистика

Post 29-Jan-2013 00:48

[Quote]

Ночные ласточки
Год выпуска: 2012
Производство: STAR MEDIA
Жанр: Боевик, мелодрама
Продолжительность: ~ 00:45:00
Субтитры: Отсутствуют
Режиссёр: Михаил Кабанов
В ролях: Татьяна Арнтгольц (Евгения Звонарева), Денис Никифоров (Александр Макеев), Елизавета Нилова (Галина), Михаил Евланов (Пивень), Евгений Ганелин (Анатолий Паленко), Игорь Савочкин (Петр Соловьев), Анатолий Пашинин (Куракин), Екатерина Олькина (Семенова), Мария Пирогова (Солышко), Олеся Фаттахова (Зина Липко) и другие.
Описание: В годы Великой Отечественной войны в рядах Красной Армии, наравне с мужчинами, сражалось около 600 000 женщин. Много женщин было и в авиации: лётчицы, штурманы, стрелки — радисты, вооруженцы… При этом, женщины — авиаторы сражались как в составах обычных «мужских» авиационных полков, так и отдельных «женских». О некоторых наиболее известных лётчицах, об истории создания и боевом пути женских авиационных полков, и будет этот рассказ…
Все раздачи сериала: http:///*spam*//forum/tracker.php?nm=%CD%EE%F7...1%F2%EE%F7%EA%E8
Сэмпл: http://multi-up.com/823765
Доп. информация: Релиз -

Рип чистый. Без посторонних надписей. Выкладывается как есть.
Качество: DVB
Формат: MPG
Видео кодек: MPG2
Аудио кодек: MP2
Видео: 720x576 @ 1024x576 (16:9) 25.00fps 5 810 Kbps, 0.560 bit/pixel
Аудио: MPEG Audio 48000Hz stereo 192 Кбит/сек

Скриншоты


MI

GeneralComplete name : H:\ВЫКЛАДКА\DVB\05 - СЕРИАЛЫ\Ночные ласточки (2012, Сериал, Боевик, Мелодрама, DVB) (MYDIMKA)\01 серия.mpgFormat : MPEG-PSFile size : 1.76 GiBDuration : 41mn 11sOverall bit rate mode : VariableOverall bit rate : 6 120 Kbps
VideoID : 224 (0xE0)Format : MPEG VideoFormat version : Version 2Format profile : [email protected] settings, BVOP : YesFormat settings, Matrix : CustomFormat settings, GOP : M=3, N=24Duration : 41mn 11sBit rate mode : VariableBit rate : 5 807 KbpsMaximum bit rate : 15.0 MbpsWidth : 720 pixelsHeight : 576 pixelsDisplay aspect ratio : 16:9Frame rate : 25.000 fpsStandard : PALColor space : YUVChroma subsampling : 4:2:0Bit depth : 8 bitsScan type : InterlacedScan order : Top Field FirstCompression mode : LossyBits/(Pixel*Frame) : 0.560Stream size : 1.67 GiB (95%)
AudioID : 192 (0xC0)Format : MPEG AudioFormat version : Version 1Format profile : Layer 2Duration : 41mn 11sBit rate mode : ConstantBit rate : 192 KbpsChannel(s) : 2 channelsSampling rate : 48.0 KHzCompression mode : LossyDelay relative to video : 1msStream size : 56.6 MiB (3%)

Внимание! Раздача ведётся путём добавления новых выпусков

Внимание! Раздача ведётся путём добавления новых выпусков; при каждом добавлении создётся новый торрент. Чтобы начать докачку нового выпуска, пользователям необходимо сделать следующее:
(1) остановить скачивание,
(2) удалить старый торрент у себя из клиента (старые выпуски удалять не надо),
(3) скачать новый торрент и запустить его у себя в клиенте вместо старого, при этом указать клиенту путь в старую папку куда и должно происходить скачивание новых выпусков.
Ваш клиент при этом должен произвести хеширование (проверку) старой папки (если не производит сам - помогите ему сделать это), и будет докачивать только те выпуски которых у вас ещё нет. Старые выпуски при этом не удаляются, а продолжают раздаваться!
Eсли вы уже удалили старые выпуски, то предотвратить повторную закачку старых выпусков можно, отжав галочку в соответсвующих местах при запуске нового торрента. По возможности, желательно не удалять старые выпуски как можно дольше чтобы релизёр не столько продолжал раздавать старые выпуски, а смог сконцентрироваться на новых.
Other forum [Profile] [PM]
Similar theme
Forum Topic Author Torrent Replies Last Post
./templates/default/images/folder_dl.gif Russian Rock (Rock) Ночные Снайперы - Дискография (1993-2009) [MP3|320 kbps] SCORPION
0 | 1

1 | 3414

0

2011-02-24 21:25
Paullo Latest
Display posts from previous:    
Reply to topic

The time now is: Today 09:34

All times are GMT + 3 Hours



You cannot post new topics in this forum
You cannot reply to topics in this forum
You cannot edit your posts in this forum
You cannot delete your posts in this forum
You cannot vote in polls in this forum
You cannot attach files in this forum
You cannot download files in this forum