Today is a free download without charge Download

Мертвец / Dead Man (Джим Джармуш / Jim Jarmusch) [1995, США, Германия, Япония, философская притча, вестерн, HDTVRip 720p] [тонированная версия] MVO (Selena International / ОРТ) + AVO (Гоблин) + Original Eng

Reply to topic
 
Author
Message

Omen ®

Longevity: 8 years 5 months

Posts: 181087

Торрент-статистика

Post 29-Jan-2013 00:48

[Quote]

Мертвец / Dead Man / тонированная версия
Страна: США, Германия, Япония
Жанр: философская притча, вестерн
Год выпуска: 1995
Продолжительность: 01:56:08
Перевод: Профессиональный (многоголосый закадровый) Selena International / ОРТ
Перевод 2: Авторский (одноголосый закадровый) Дмитрий «Гоблин» Пучков
Cубтитры: нет
Оригинальная аудиодорожка: английский
Режиссер: Джим Джармуш / Jim Jarmusch
В ролях: Джонни Депп, Гэри Фармер, Лэнс Хенриксен, Майкл Уинкотт, Майли Эвитал, Игги Поп, Билли Боб Торнтон, Джаред Харрис, Криспин Гловер, Юджин Бёрд, Гэбриел Бирн, Джон Хёрт, Альфред Молина, Роберт Митчум
Описание: После смерти родителей молодой счетовод Уильям Блэйк в надежде на работу приезжает на Дикий Запад, где по злой воле случая за его голову назначается награда в 500 долларов. Раненного в грудь возле сердца, его выхаживает индеец, которого много лет возили по городам Америки и Англии в качестве живого экспоната. Он принял этого юношу в очках за поэта Уильяма Блэйка, чьи стихи запали в сердце «дикаря», и стал его ангелом-хранителем. А опекаемый, лишившись очков, сам вдруг стал стрелять без промаха, увеличивая стоимость своей головы, оставляя за собой след из трупов и приближаясь к тому «месту, откуда приходят и куда возвращаются все духи».
Доп. информация: HDTV-рип был выкачан несколько лет назад через DC++ из локальной сети Миг-Телеком и представлял собой .ts-файл с испанским звуком. Лежал без дела, пока не нашлись подходящие к 25-ти fps русские (и английская) звуковые дорожки. Английская дорога синхронизировалась идеально, русские дорожки местами точно попадают, местами имеют небольшое запаздывание. С какого именно канала был заграбан .ts не ясно, логотип канала нигде не вылезает.
Сэмпл: http://www.sendspace.com/file/zyfhnh
Тип релиза: HDTVRip 720p
Контейнер: MKV
Видео: H.264, 1280x720, 16:9, 7590 Kbps, 25 fps
Аудио: русский многоголосый закадровый, MPEG1 Layer2, 2.0 ch, 48 kHr, 224 kbps
Аудио 2: русский одноголосый закадровый, MPEG1 Layer2, 2.0 ch, 48 kHr, 224 kbps
Аудио 3: английский (оригинальный), MPEG1 Layer2, 2.0 ch, 48 kHr, 224 kbps

MediaInfo

Complete name : \\Sasha\x_931 (x)\TORRENT\Dead-Man-720p.mkv
Format : Matroska
Format version : Version 4 / Version 2
File size : 6.84 GiB
Duration : 1h 56mn
Overall bit rate mode : Constant
Overall bit rate : 8 429 Kbps
Encoded date : UTC 2013-01-27 18:41:46
Writing application : mkvmerge v6.0.0 ('Coming Up For Air') built on Jan 20 2013 09:52:00
Writing library : libebml v1.3.0 + libmatroska v1.4.0
Video
ID : 1
Format : AVC
Format/Info : Advanced Video Codec
Format profile : [email protected]
Format settings, CABAC : Yes
Format settings, ReFrames : 3 frames
Codec ID : V_MPEG4/ISO/AVC
Duration : 1h 56mn
Bit rate mode : Constant
Bit rate : 7 590 Kbps
Nominal bit rate : 8 000 Kbps
Width : 1 280 pixels
Height : 720 pixels
Display aspect ratio : 16:9
Frame rate mode : Constant
Frame rate : 25.000 fps
Standard : PAL
Color space : YUV
Chroma subsampling : 4:2:0
Bit depth : 8 bits
Scan type : Progressive
Bits/(Pixel*Frame) : 0.329
Stream size : 6.16 GiB (90%)
Title : Dead-Man-720p
Language : English
Default : Yes
Forced : No
Color primaries : BT.709
Transfer characteristics : BT.709
Matrix coefficients : BT.709
Audio #1
ID : 2
Format : MPEG Audio
Format version : Version 1
Format profile : Layer 2
Codec ID : A_MPEG/L2
Codec ID/Hint : MP2
Duration : 1h 56mn
Bit rate mode : Constant
Bit rate : 224 Kbps
Channel(s) : 2 channels
Sampling rate : 48.0 KHz
Compression mode : Lossy
Stream size : 186 MiB (3%)
Title : Selena International
Language : Russian
Default : Yes
Forced : No
Audio #2
ID : 3
Format : MPEG Audio
Format version : Version 1
Format profile : Layer 2
Codec ID : A_MPEG/L2
Codec ID/Hint : MP2
Duration : 1h 56mn
Bit rate mode : Constant
Bit rate : 224 Kbps
Channel(s) : 2 channels
Sampling rate : 48.0 KHz
Compression mode : Lossy
Stream size : 186 MiB (3%)
Title : Goblin
Language : Russian
Default : No
Forced : No
Audio #3
ID : 4
Format : MPEG Audio
Format version : Version 1
Format profile : Layer 2
Codec ID : A_MPEG/L2
Codec ID/Hint : MP2
Duration : 1h 56mn
Bit rate mode : Constant
Bit rate : 224 Kbps
Channel(s) : 2 channels
Sampling rate : 48.0 KHz
Compression mode : Lossy
Stream size : 186 MiB (3%)
Title : Original
Language : English
Default : No
Forced : No

Скриншоты










Other forum [Profile] [PM]
Display posts from previous:    
Reply to topic

The time now is: Today 01:32

All times are GMT + 3 Hours



You cannot post new topics in this forum
You cannot reply to topics in this forum
You cannot edit your posts in this forum
You cannot delete your posts in this forum
You cannot vote in polls in this forum
You cannot attach files in this forum
You cannot download files in this forum