Today is a free download without charge Download

Nick Lowe - AVO Session [2012, Pub-Rock, HDTV 720p]

Reply to topic
 
Author
Message

Omen ®

Longevity: 8 years 3 months

Posts: 181087

Торрент-статистика

Post 29-Jan-2013 00:48

[Quote]

Nick Lowe
AVO Session
- Жанр: Pub-Rock
Продолжительность: 41:00
Год выпуска: 2012
Описание: "AVO Session 2012"
Musical Theater Basel
Basel, Switzerland
2012-October-28
Качество: HDTV 720p
Контейнер: MKV
Видео кодек: H.264
Аудио кодек: AC3
Видео: AVC, 1280x720, 9919 kbps, 50 fps
Аудио: AC3, 448 kbps, 48 kHz, 6 ch
Аудио 2: MP2, 256 kbps, 48 kHz, 2 ch

Отчёт MediaInfo / BDInfo

ОбщееУникальный идентификатор : 175567026691440417670753551358500769827 (0x8414FAB9A4F371C49224462AFDCB9023)Полное имя : H:\CAPTURE\Nick Lowe - AVO Session 2012 [HDTV 720p].mkvФормат : MatroskaВерсия формата : Version 4 / Version 2Размер файла : 3,10 ГбайтПродолжительность : 41 м.Режим общего битрейта : ПеременныйОбщий поток : 10,8 Мбит/секДата кодирования : UTC 2013-01-28 19:25:49Программа кодирования : mkvmerge v6.0.0 ('Coming Up For Air') built on Jan 20 2013 09:52:00Библиотека кодирования : libebml v1.3.0 + libmatroska v1.4.0
ВидеоИдентификатор : 1Формат : AVCФормат/Информация : Advanced Video CodecПрофиль формата : [email protected]Параметр CABAC формата : ДаПараметр ReFrames формата : 3 кадраПараметр GOP формата : M=2, N=24Идентификатор кодека : V_MPEG4/ISO/AVCПродолжительность : 41 м.Вид битрейта : ПеременныйБитрейт : 9919 Кбит/секМаксимальный битрейт : 40,0 Мбит/секШирина : 1280 пикселейВысота : 720 пикселейСоотношение сторон : 16:9Режим частоты кадров : ПостоянныйЧастота кадров : 50,000 кадров/секСтандарт вещания : ComponentЦветовое пространство : YUVСубдискретизация насыщенности : 4:2:0Битовая глубина : 8 битТип развёртки : ПрогрессивнаяБит/(Пиксели*Кадры) : 0.215Размер потока : 2,84 Гбайт (92%)Язык : EnglishDefault : ДаForced : НетОсновные цвета : BT.709Характеристики трансфера : BT.709Коэффициенты матрицы : BT.709
Аудио #1Идентификатор : 2Формат : AC-3Формат/Информация : Audio Coding 3Расширение режима : CM (complete main)Параметр Endianness формата : BigИдентификатор кодека : A_AC3Продолжительность : 41 м.Вид битрейта : ПостоянныйБитрейт : 448 Кбит/секКаналы : 6 каналовРасположение каналов : Front: L C R, Side: L R, LFEЧастота : 48,0 КГцБитовая глубина : 16 битМетод сжатия : С потерямиРазмер потока : 131 Мбайт (4%)Заголовок : AC3 6chЯзык : EnglishDefault : ДаForced : Нет
Аудио #2Идентификатор : 3Формат : MPEG AudioВерсия формата : Version 1Профиль формата : Layer 2Идентификатор кодека : A_MPEG/L2Идентификатор кодека/Подсказка : MP2Продолжительность : 41 м.Вид битрейта : ПостоянныйБитрейт : 256 Кбит/секКаналы : 2 каналаЧастота : 48,0 КГцМетод сжатия : С потерямиРазмер потока : 75,1 Мбайт (2%)Заголовок : MP2 2chЯзык : EnglishDefault : НетForced : Нет

Скриншоты

Other forum [Profile] [PM]
Display posts from previous:    
Reply to topic

The time now is: Today 13:16

All times are GMT + 3 Hours



You cannot post new topics in this forum
You cannot reply to topics in this forum
You cannot edit your posts in this forum
You cannot delete your posts in this forum
You cannot vote in polls in this forum
You cannot attach files in this forum
You cannot download files in this forum