Today is a free download without charge Download

Смоки и Бандит / Smokey and the Bandit (Хэл Нидэм) [1977 г., боевик, мелодрама, комедия, криминал, BDRip 720p]

Reply to topic
 
Author
Message

Delia ®

Gender:

Longevity: 9 years 6 months

Posts: 1821

Торрент-статистика

Post 08-May-2011 21:46

[Quote]

Смоки и БандитSmokey and the Bandit Год выпуска: 1977
Страна: США
Жанр: боевик, мелодрама, комедия, криминал
Продолжительность: 96 мин.
Перевод: Профессиональный (многоголосый, закадровый)
Режиссер: Хэл Нидэм
Продюссер: Морт Энгелберг, Роберт Л. Леви
Сценарий: Хэл Нидэм, Роберт Л. Леви, Джеймс Ли Баррет
Премьера в мире: 19 мая 1977
В ролях: Берт Рейнолдс, Салли Филд, Джерри Рид, Майк Генри, Пол Уильямс, Пэт МакКормик, Джекки Глисон, Джордж Рейнольдс, Макон МакКалман, Линда МакКлюр
Описание: Парочка водителей, Бандит и Снеговик, берутся перевезти грузовик контрабандного пива из Тексарканы в Атланту за 48 часов. Схема проста: пока Бандит отвлекает полицейских, Снеговик спокойно на грузовике едет за ним. В то же время шериф Бьюфорд Джастис решает во что бы то не стало поймать Бандита, так как невеста его сына сбежала со свадьбы и села к Бандиту в машину...
Качество: BDRip 720p
Формат: MKV
Видео кодек: H.264
Аудио кодек: AC3
Видео: English, 5763 Кбит/сек, 1280*688 (1,860), в 23,976 кадр/сек, AVC ([email protected])
Аудио: Russian, 448 Кбит/сек, 48,0 КГц, 16 бит, 2 канала, AC-3
Аудио:English, 320 Кбит/сек, 48,0 КГц, 16 бит, 6 каналов, AC-3
Субтитры:English- VobSub

MediaInfo:

Общее
Уникальный идентификатор : 253599189717859676805493157445232374436 (0xBEC96D65D38AA5209F62169AE45E32A4)
Полное имя : E:\торрент\Smokey and the Bandit (1977) BDRip 720з.mkv
Формат : Matroska
Размер файла : 4,38 Гбайт
Продолжительность : 1 ч. 35 м.
Общий поток : 6537 Кбит/сек
Дата кодирования : UTC 2011-05-08 16:29:44
Программа кодирования : mkvmerge v4.7.0 ('Just Like You Imagined') built on Apr 21 2011 01:13:14
Библиотека кодирования : libebml v1.2.0 + libmatroska v1.1.0
Видео
Идентификатор : 1
Формат : AVC
Формат/Информация : Advanced Video Codec
Профиль формата : [email protected]
Параметр CABAC формата : Да
Параметр ReFrames формата : 10 кадров
Идентификатор кодека : V_MPEG4/ISO/AVC
Продолжительность : 1 ч. 35 м.
Битрейт : 5763 Кбит/сек
Ширина : 1280 пикс.
Высота : 688 пикс.
Соотношение сторон : 1,860
Частота кадров : 23,976 кадр/сек
Цветовое пространство : YUV
Подвыборка цветности : 4:2:0
Битовая глубина : 8 бит
Тип развёртки : Прогрессивная
Бит/(Пиксели*Кадры) : 0.273
Размер потока : 3,77 Гбайт (86%)
Библиотека кодирования : x264 core 114 r1924 08d04a4
Настройки программы : cabac=1 / ref=10 / deblock=1:-3:-3 / analyse=0x3:0x133 / me=umh / subme=7 / psy=1 / psy_rd=1.00:0.00 / mixed_ref=1 / me_range=32 / chroma_me=1 / trellis=2 / 8x8dct=1 / cqm=0 / deadzone=21,11 / fast_pskip=0 / chroma_qp_offset=-2 / threads=6 / sliced_threads=0 / nr=0 / decimate=1 / interlaced=0 / constrained_intra=0 / bframes=4 / b_pyramid=2 / b_adapt=1 / b_bias=0 / direct=1 / weightb=1 / open_gop=0 / weightp=2 / keyint=250 / keyint_min=24 / scenecut=40 / intra_refresh=0 / rc_lookahead=50 / rc=2pass / mbtree=1 / bitrate=5763 / ratetol=1.0 / qcomp=0.80 / qpmin=0 / qpmax=69 / qpstep=4 / cplxblur=20.0 / qblur=0.5 / ip_ratio=1.40 / aq=1:1.00
Язык : English
Аудио #1
Идентификатор : 2
Формат : AC-3
Формат/Информация : Audio Coding 3
Расширение режима : CM (complete main)
Идентификатор кодека : A_AC3
Продолжительность : 1 ч. 35 м.
Вид битрейта : Постоянный
Битрейт : 448 Кбит/сек
Каналы : 2 канала
Расположение каналов : Front: L R
Частота : 48,0 КГц
Битовая глубина : 16 бит
Метод сжатия : С потерями
Размер потока : 307 Мбайт (7%)
Язык : Russian
Аудио #2
Идентификатор : 3
Формат : AC-3
Формат/Информация : Audio Coding 3
Расширение режима : CM (complete main)
Идентификатор кодека : A_AC3
Продолжительность : 1 ч. 35 м.
Вид битрейта : Постоянный
Битрейт : 320 Кбит/сек
Каналы : 6 каналов
Расположение каналов : Front: L C R, Side: L R, LFE
Частота : 48,0 КГц
Битовая глубина : 16 бит
Метод сжатия : С потерями
Размер потока : 219 Мбайт (5%)
Язык : English
Текст
Идентификатор : 4
Формат : VobSub
Режим смешивания : zlib
Идентификатор кодека : S_VOBSUB
Идентификатор кодека/Информация : The same subtitle format used on DVDs
Язык : English
Меню
00:00:00.000 : en:00:00:00.000
00:04:56.922 : en:00:04:56.922
00:07:27.697 : en:00:07:27.697
00:18:01.914 : en:00:18:01.914
00:21:16.066 : en:00:21:16.066
00:23:55.809 : en:00:23:55.809
00:32:15.809 : en:00:32:15.809
00:41:09.050 : en:00:41:09.050
00:43:42.411 : en:00:43:42.411
00:53:48.892 : en:00:53:48.892
01:07:01.142 : en:01:07:01.142
01:12:06.447 : en:01:12:06.447
01:19:11.413 : en:01:19:11.413
01:24:39.616 : en:01:24:39.616
01:27:28.326 : en:01:27:28.326
01:32:17.157 : en:01:32:17.157

Скриншоты

       

_________________
Человек – это канат, натянутый между животным и сверхчеловеком, – канат над пропастью.
В человеке ценно то, что он мост, а не цель. Фридрих Ницше


Last edited by Delia on 2011-08-26 18:23; edited 1 time in total
Other forum [Profile] [PM]
Display posts from previous:    
Reply to topic

The time now is: Today 08:25

All times are GMT + 3 Hours



You cannot post new topics in this forum
You cannot reply to topics in this forum
You cannot edit your posts in this forum
You cannot delete your posts in this forum
You cannot vote in polls in this forum
You cannot attach files in this forum
You cannot download files in this forum