Today is a free download without charge Download

Frank Turner - Gurtenfestival [2012, Folk-Rock/ Folk-Punk, HDTV 720p]

Reply to topic
 
Author
Message

Omen ®

Longevity: 8 years 3 months

Posts: 181087

Торрент-статистика

Post 28-Jan-2013 20:40

[Quote]

Frank Turner And The Sleeping Souls
"Gurtenfestival 2012"
Bern, Switzerland
- Жанр: Folk-Rock/ Punk
Продолжительность: 1:05:29
Год выпуска: 2012
Описание: "Gurtenfestival 2012"
Bern, Switzerland
2012-July-14
setlist:
01. If Ever I Stray
02. The Road
03. Peggy Sang The Blues
04. Reasons Not To Be An Idiot
05. Glory Hallelujah
06. The Real Damage
07. Wessex Boy
08. Substitute
09. Recovery (new song)
10. I Knew Prufrock Before He Got Famous
11. I Am Disappeared
12. Long Live The Queen
13. Four Simple Words (new song)
14. Try This At Home
15. I Still Believe
16. Photosynthesis

Качество: HDTV 720p
Контейнер: MKV
Видео кодек: H.264
Аудио кодек: AC3
Видео: AVC, 1280x720, 50 fps, 9975 kbps
Аудио: AC3, 448 kbps, 48 kHz, 6 ch
Аудио 2: MP2, 256 kbps, 48 kHz, 2 ch

Отчёт MediaInfo / BDInfo

ОбщееУникальный идентификатор : 225862878127416446316537568388395083903 (0xA9EB9BA7ED3A2C20AC400A9692F4A87F)Полное имя : H:\CAPTURE\Frank Turner - Gurtenfestival [HDTV 720p].mkvФормат : MatroskaВерсия формата : Version 4 / Version 2Размер файла : 4,98 ГбайтПродолжительность : 1 ч. 5 м.Режим общего битрейта : ПеременныйОбщий поток : 10,9 Мбит/секДата кодирования : UTC 2013-01-28 10:40:55Программа кодирования : mkvmerge v6.0.0 ('Coming Up For Air') built on Jan 20 2013 09:52:00Библиотека кодирования : libebml v1.3.0 + libmatroska v1.4.0
ВидеоИдентификатор : 1Формат : AVCФормат/Информация : Advanced Video CodecПрофиль формата : [email protected]Параметр CABAC формата : ДаПараметр ReFrames формата : 3 кадраПараметр GOP формата : M=2, N=24Идентификатор кодека : V_MPEG4/ISO/AVCПродолжительность : 1 ч. 5 м.Вид битрейта : ПеременныйБитрейт : 9975 Кбит/секМаксимальный битрейт : 40,0 Мбит/секШирина : 1280 пикселейВысота : 720 пикселейСоотношение сторон : 16:9Режим частоты кадров : ПостоянныйЧастота кадров : 50,000 кадров/секСтандарт вещания : ComponentЦветовое пространство : YUVСубдискретизация насыщенности : 4:2:0Битовая глубина : 8 битТип развёртки : ПрогрессивнаяБит/(Пиксели*Кадры) : 0.216Размер потока : 4,56 Гбайт (92%)Язык : EnglishDefault : ДаForced : НетОсновные цвета : BT.709Характеристики трансфера : BT.709Коэффициенты матрицы : BT.709
Аудио #1Идентификатор : 2Формат : AC-3Формат/Информация : Audio Coding 3Расширение режима : CM (complete main)Параметр Endianness формата : BigИдентификатор кодека : A_AC3Продолжительность : 1 ч. 5 м.Вид битрейта : ПостоянныйБитрейт : 448 Кбит/секКаналы : 6 каналовРасположение каналов : Front: L C R, Side: L R, LFEЧастота : 48,0 КГцБитовая глубина : 16 битМетод сжатия : С потерямиРазмер потока : 210 Мбайт (4%)Заголовок : AC3 6chЯзык : EnglishDefault : ДаForced : Нет
Аудио #2Идентификатор : 3Формат : MPEG AudioВерсия формата : Version 1Профиль формата : Layer 2Идентификатор кодека : A_MPEG/L2Идентификатор кодека/Подсказка : MP2Продолжительность : 1 ч. 5 м.Вид битрейта : ПостоянныйБитрейт : 256 Кбит/секКаналы : 2 каналаЧастота : 48,0 КГцМетод сжатия : С потерямиРазмер потока : 120 Мбайт (2%)Заголовок : MP2 2chЯзык : EnglishDefault : НетForced : Нет

Скриншоты

Other forum [Profile] [PM]
Display posts from previous:    
Reply to topic

The time now is: Today 22:09

All times are GMT + 3 Hours



You cannot post new topics in this forum
You cannot reply to topics in this forum
You cannot edit your posts in this forum
You cannot delete your posts in this forum
You cannot vote in polls in this forum
You cannot attach files in this forum
You cannot download files in this forum