Today is a free download without charge Download

Discovery: Золотая Лихорадка. Аляска. Миллион долларов за сезон / Gold Rush. Alaska. Million Dollar Season (2012) SATRip [Сезон 3: эпизод 1]

Reply to topic
 
Author
Message

Omen ®

Longevity: 7 years 10 months

Posts: 181087

Торрент-статистика

Post 28-Jan-2013 20:11

[Quote]

-Discovery: Золотая Лихорадка. Аляска. Миллион долларов за сезон / Gold Rush. Alaska. Million Dollar Season (2012) SATRip [Сезон 3: эпизод 1]- Автор Rip'а: skorpionN
Русское название: Discovery: Золотая Лихорадка. Аляска. Миллион долларов за сезон
Оригинальное название: Gold Rush. Alaska. Million Dollar Season
Режиссер / Телекомпания: Discovery Channel
Год выпуска: 2012
Жанр: Документальный
Описание:
Их шестеро, у них есть ограниченное время и ресурсы, им необходимо добыть золото, иначе их семьям придется очень тяжело, каждый день для них суровое испытание. Каждый день может принести им миллионы а может их отобрать! Повезет ли?!
Продолжительность: 00:44:05
Перевод: Одноголосый закадровый, профессиональный
Видеокодек: Xvid
Битрейт видео: ~1750 kbps
Размер кадра: 704х400
Качество видео: SATRip
Аудиокодек: AC3, 2 ch.
Битрейт аудио: 192 kbps

MediaInfo:

Формат : AVI
Формат/Информация : Audio Video Interleave
Размер файла : 615 Мбайт
Продолжительность : 44 м.
Общий поток : 1952 Кбит/сек
Программа кодирования : VirtualDubMod 1.5.10.3 | www.virtualdub-fr.org || (build 2550/release)
Библиотека кодирования : VirtualDubMod build 2550/release
Видео
Идентификатор : 0
Формат : MPEG-4 Visual
Профиль формата : Advanced [email protected]
Параметр BVOP формата : 2
Параметр QPel формата : Да
Параметр GMC формата : 3 точки перехода
Параметр матрицы формата : Default (H.263)
Идентификатор кодека : XVID
Идентификатор кодека/Подсказка : XviD
Продолжительность : 44 м.
Битрейт : 1750 Кбит/сек
Ширина : 704 пикс.
Высота : 400 пикс.
Соотношение сторон : 16:9
Частота кадров : 25,000 кадр/сек
Цветовое пространство : YUV
Подвыборка цветности : 4:2:0
Битовая глубина : 8 бит
Тип развёртки : Прогрессивная
Метод сжатия : С потерями
Бит/(Пиксели*Кадры) : 0.249
Размер потока : 552 Мбайт (90%)
Библиотека кодирования : XviD 1.2.1 (UTC 2008-12-04)
Аудио
Идентификатор : 1
Формат : AC-3
Формат/Информация : Audio Coding 3
Расширение режима : CM (complete main)
Идентификатор кодека : 2000
Продолжительность : 44 м.
Вид битрейта : Постоянный
Битрейт : 192 Кбит/сек
Канал(ы) : 2 канала(ов)
Расположение каналов : Front: L R
Частота : 48,0 КГц
Битовая глубина : 16 бит
Метод сжатия : С потерями
Размер потока : 60,5 Мбайт (10%)
Выравнивание : Разделение по промежуткам
Продолжительность промежутка : 40 мс. (1,00 видеокадр)
Время предзагрузки промежутка : 500 ms
Сезон 3:
[url=/forum/viewtopic.php?t=610194]01. Миллион долларов за сезон[/url]
[url=/forum/viewtopic.php?t=610210]02. Неправомерные претензии[/url]
Золотая Лихорадка
Скриншоты:
         
         
Время раздачи: 24/7 ( до первых скачавших, перебои со связью бывают,зависит от провайдера)
Other forum [Profile] [PM]
Display posts from previous:    
Reply to topic

The time now is: Today 15:06

All times are GMT + 3 Hours



You cannot post new topics in this forum
You cannot reply to topics in this forum
You cannot edit your posts in this forum
You cannot delete your posts in this forum
You cannot vote in polls in this forum
You cannot attach files in this forum
You cannot download files in this forum