Today is a free download without charge Download

Синистер / Sinister (Скотт Дерриксон / Scott Derrickson) [2012, США, ужасы, триллер, детектив, BDRemux 1080p] Dub + Original Eng + Subs (Rus, Eng)

Reply to topic
 
Author
Message

Omen ®

Longevity: 8 years 5 months

Posts: 181087

Торрент-статистика

Post 28-Jan-2013 12:32

[Quote]

Синистер / Sinister «Увидевший его не спасётся.» / «Once You See Him, Nothing Can Save You.» Год выпуска: 2012
Страна: США
Жанр: ужасы, триллер, детектив
Продолжительность: 01:49:45.662
Перевод: Профессиональный (дублированный)
Оригинальная аудиодорожка: Английская
Субтитры: Руссие, английские
Студия: Alliance Films, Automatik Entertainment, Blumhouse Productions
Режиссёр: Скотт Дерриксон / Scott Derrickson
В ролях: Итан Хоук / Ethan Hawke (Ellison Oswalt), Джульет Райлэнс / Juliet Rylance (Tracy), Фред Долтон Томпсон / Fred Dalton Thompson (Sheriff), Джеймс Рэнсон / James Ransone (Deputy), Майкл Холл Д’Аддарио / Michael Hall D'Addario (Trevor), Клер Фоли / Clare Foley (Ashley), Роб Райли / Rob Riley (E.M.T.), Тэвис Смайли / Tavis Smiley (Anchor), Джанет Заппала / Janet Zappala (Reporter), Виктория Ли / Victoria Leigh (Stephanie), Камерон Окасио / Cameron Ocasio (BBQ Boy), Этан Хаберфилд / Ethan Haberfield (Pool Party Boy) и др.
Описание: Вместе с семьёй автор детективов поселяется в небольшом городке, в доме, где почти год назад развернулась леденящая душу трагедия - были убиты все жильцы. Писатель случайно находит видеозаписи, которые являются ключом к тайне преступления. Но ничто не даётся даром: в доме начинают происходить жуткие вещи и теперь под угрозой жизнь его близких. Они столкнулись с чем-то, от чего нет спасения…
  • Кинопоиск
  • IMDB
  • Blu-ray.com
  • Сэмпл
    Качество: BDRemux 1080p
    Контейнер: MKV
    Видео кодек: MPEG-4 AVC Video
    Аудио кодек: Dolby Digital Audio / DTS-HD Master Audio
    Видео: MPEG-4 AVC Video / 27826 kbps / 1920x1080p / 23,976 fps / 16:9 / High Profile 4.1
    Аудио 1: Русский / Dolby Digital Audio / 448 kbps / 5.1 / 48 kHz / 16-bit (Dub)
    Аудио 2: English / DTS-HD Master Audio / 3549 kbps / 5.1 / 48 kHz / 24-bit (DTS Core: 5.1 / 48 kHz / 768 kbps / 24-bit) (Оригинал)
    Навигация по главам: да

Скриншот с названием фильма

MediaInfo

C:\Синистер (Sinister) 2012, США, ужасы, триллер, детектив, BDRemux 1080p GORESEWAGE.mkv
General
Unique ID : 243535613509389678416720766228289748599 (0xB73740C86CD65B2490F3193CA68EFE77)
Complete name : C:\/*spam*/\Синистер (Sinister) 2012, США, ужасы, триллер, детектив, BDRemux 1080p GORESEWAGE.mkv
Format : Matroska
Format version : Version 4 / Version 2
File size : 24.4 GiB
Duration : 1h 49mn
Overall bit rate mode : Variable
Overall bit rate : 31.8 Mbps
Movie name : GORESEWAGE
Encoded date : UTC 2013-01-28 08:16:58
Writing application : mkvmerge v6.0.0 ('Coming Up For Air') built on Jan 20 2013 09:52:00
Writing library : libebml v1.3.0 + libmatroska v1.4.0
Video #1
ID : 1
Format : AVC
Format/Info : Advanced Video Codec
Format profile : [email protected]
Format settings, CABAC : Yes
Format settings, ReFrames : 3 frames
Format settings, GOP : M=4, N=24
Codec ID : V_MPEG4/ISO/AVC
Duration : 1h 49mn
Bit rate mode : Variable
Bit rate : 29.9 Mbps
Maximum bit rate : 35.0 Mbps
Width : 1 920 pixels
Height : 1 080 pixels
Display aspect ratio : 16:9
Frame rate mode : Constant
Frame rate : 23.976 fps
Standard : NTSC
Color space : YUV
Chroma subsampling : 4:2:0
Bit depth : 8 bits
Scan type : Progressive
Bits/(Pixel*Frame) : 0.602
Stream size : 23.0 GiB (94%)
Title : GORESEWAGE
Language : English
Default : Yes
Forced : No
Color primaries : BT.709
Transfer characteristics : BT.709
Matrix coefficients : BT.709
Audio #2
ID : 2
Format : AC-3
Format/Info : Audio Coding 3
Mode extension : CM (complete main)
Format settings, Endianness : Big
Codec ID : A_AC3
Duration : 1h 49mn
Bit rate mode : Constant
Bit rate : 448 Kbps
Channel(s) : 6 channels
Channel positions : Front: L C R, Side: L R, LFE
Sampling rate : 48.0 KHz
Bit depth : 16 bits
Compression mode : Lossy
Stream size : 352 MiB (1%)
Title : Профессиональный (дублированный)
Language : Russian
Default : Yes
Forced : No
Audio #3
ID : 3
Format : DTS
Format/Info : Digital Theater Systems
Format profile : MA / Core
Codec ID : A_DTS
Duration : 1h 49mn
Bit rate mode : Variable
Bit rate : 806 Kbps / 755 Kbps
Channel(s) : 6 channels
Channel positions : Front: L C R, Side: L R, LFE
Sampling rate : 48.0 KHz
Bit depth : 24 bits
Compression mode : Lossless / Lossy
Title : Оригинал
Language : English
Default : No
Forced : No
Text #4
ID : 4
Format : UTF-8
Codec ID : S_TEXT/UTF8
Codec ID/Info : UTF-8 Plain Text
Title : Полные
Language : Russian
Default : No
Forced : No
Text #5
ID : 5
Format : UTF-8
Codec ID : S_TEXT/UTF8
Codec ID/Info : UTF-8 Plain Text
Title : Полные
Language : English
Default : No
Forced : No
Menu
00:00:00.000 : en:00:00:00.000
00:10:47.605 : en:00:10:47.605
00:19:12.360 : en:00:19:12.360
00:27:15.217 : en:00:27:15.217
00:37:05.557 : en:00:37:05.557
00:46:42.383 : en:00:46:42.383
00:56:37.144 : en:00:56:37.144
01:07:20.411 : en:01:07:20.411
01:17:10.751 : en:01:17:10.751
01:26:22.803 : en:01:26:22.803
01:33:41.616 : en:01:33:41.616
01:43:15.147 : en:01:43:15.147

Полноразмерные постеры

Other forum [Profile] [PM]
Display posts from previous:    
Reply to topic

The time now is: Today 06:13

All times are GMT + 3 Hours



You cannot post new topics in this forum
You cannot reply to topics in this forum
You cannot edit your posts in this forum
You cannot delete your posts in this forum
You cannot vote in polls in this forum
You cannot attach files in this forum
You cannot download files in this forum