Today is a free download without charge Download

Лучшие из райских уголков... Австралия, Египет, Куба, Тунис / Voyage [s01x01-04] DVDRip от Youtracker

Reply to topic
 
Author
Message

Omen ®

Longevity: 9 years

Posts: 181086

Торрент-статистика

Post 28-Jan-2013 04:35

[Quote]

Страна: Франция
Год выпуска: 2004
Авторы сценария: Людовик Дюно/ Ludovic Dunod, Клэр Едон / Clarie Hedon, Вирджиния Берда / Virginie Berda, Алан Марсели / Alain Marsel
Жанр: документальный
Продолжительность: 00:26:43 + 00:25:22 + 00:26:16 + 00:26:57
Перевод: профессионоальный (двухголосый, закадровый)
Оригинальная аудиодорожка: нет
Cубтитры: нет
Описание:
Австралия сочетает в себе контраст небоскребов и одноэтажных коттеджей спальных районов; бурную ночную жизнь и покой садов и скверов. Если Вам нужно забыть о существовании мира офиса, работы - отправляйтесь в национальный парк, в джунгли и Вам гарантирована встреча с аборигенами, крокодилами, водопадами и прочей экзотикой. Или займитесь дайвингом на уникальных коралловых рифах.
Название "Австралия" происходит от лат. australis, означающего южный. Легенды о "неизвестной южной земле" (terra australis incognita) идут со времен римлян, были общим местом средневековой географии, однако не были основаны на реальном знании. Голландцы использовали этот термин для всех новооткрытых южных земель с 1638 года. Название "Australia" стало популярным после опубликования Путешествия в Terra Australis капитана Мэтью Флиндерса. Губернатор Нового Южного Уэльса Макквайри использовал это название в переписке с Англией. В 1817 году он рекомендовал это название как официальное. В 1824 году Британское адмиралтейство окончательно утвердило это название континента.- Каждый из нас с детства наслышан о далеком и загадочном Египте, о его грандиозных пирамидах и могущественных фараонах, величавом Ниле и молчаливом Сфинксе. Многообразие подводного мира и экзотика Красного моря, ласковое Средиземноморье - это Египет. Любители экзотической природы сделают здесь для себя огромное количество открытий. Города на побережье Красного моря стали международными центрами по подводному плаванию, серфингу, парусному спорту и подводной ловле. Джип сафари поможет ненадолго окунуться в загадки пустынь и почувствовать вкус дикой природы.
Название страны - "Египет" происходит от древней египетской столицы Хикупта (Хет-Ка-Птах - "дом Ка Птаха", греч. - Мемфис). Греки, перефразировав это слово, назвали весь Египет словом "Айгюптос". Из этого, в свою очередь, термин перекочевал во все европейские языки.- Остров Свободы - неповторимый по своей красоте и чистоте мир природы. Бесконечные бело-песчаные пляжи, неповторимые по своей красоте заповедники и богатейший морской мир - мечта для искателей приключений в подводном царстве. Куба - это еще и настоящий музей, в котором собраны театры, соборы, храмы, шедевры колониальной архитектуры, хранящие тайны истории. Но самое главное это народ - веселый и жизнерадостный, наполняющий своим радушием и зажигающий все вокруг невероятной любовью к жизни.
По численности населения страна занимает 69-е место в мире. Население около 11,3 млн. человек (2005 год). Состав населения: мулаты - 51%, европейцы - 37%, негры - 11%, китайцы - 1%. Крупнейшие города - Гавана (2 328 000 чел.), Сантьяго-де-Куба (544 400 чел.), Камагуэй (348 600 чел.), Хагуэй (312 100 чел.).- Тунис близок нам не только территориально, но и своим радушием, историей и традициями. Местный климат и пейзажи делают из этой удивительной страны радушного гостеприимства и искренних улыбок идеальное место для великолепного отдыха. Исключительным разнообразием отличается отдых в Тунисе. Неисчерпаемые возможности для активного отдыха: пляжи, экскурсии в римские поселения, гольф, талассотерапия и полные приключений путешествия на верблюдах по барханам пустыни Сахара.
98% населения страны - арабы. Однако, существует незначительная часть (1%) берберов. Берберы в основном говорят на берберском языке, часто называемым Шелха. 98% населения - мусульмане. Также небольшое количество католиков. Численность населения составляет 10.08 млн. человек. В последние годы в Тунисе резко падала рождаемость. в 2006 году суммарный коэффициент рождаемости оценивается в 1,75 ребенка на женщину. Это самый низкий показатель среди арабских стран и существенно ниже уровня, необходимого для простого воспроизводства населения.- -Исходник: 4 x DVD5 R5
Тип релиза: DVDRip
Контейнер: AVI
Видео: 688x528 (4:3), 25 fps, XviD ~ 2020 kbps avg, 0.226 bit/pixel
Аудио: 48 kHz, AC3, 2 ch, 192.00 kbps, русский
Раздача от:

MediaInfo

Общее
Полное имя : Luchshie.iz.rayskih.ugolkov.2004.P2.DVDRip_[Youtracker]_by_avprohAvstraliya.avi
Формат : AVI
Формат/Информация : Audio Video Interleave
Размер файла : 434 Мбайт
Продолжительность : 26 м.
Общий поток : 2269 Кбит/сек
Программа кодирования : VirtualDubMod 1.5.10.3 (build 2550/release)
Библиотека кодирования : VirtualDubMod build 2550/release
Видео
Идентификатор : 0
Формат : MPEG-4 Visual
Профиль формата : Advanced [email protected]
Параметр BVOP формата : 1
Параметр QPel формата : Нет
Параметр GMC формата : Без точки перехода
Параметр матрицы формата : Выборочная
Идентификатор кодека : XVID
Идентификатор кодека/Подсказка : XviD
Продолжительность : 26 м.
Битрейт : 2067 Кбит/сек
Ширина : 688 пикселей
Высота : 528 пикселей
Соотношение сторон : 4:3
Частота кадров : 25,000 кадров/сек
Цветовое пространство : YUV
Субдискретизация насыщенности : 4:2:0
Битовая глубина : 8 бит
Тип развёртки : Прогрессивная
Метод сжатия : С потерями
Бит/(Пиксели*Кадры) : 0.228
Размер потока : 395 Мбайт (91%)
Библиотека кодирования : XviD 65
Аудио
Идентификатор : 1
Формат : AC-3
Формат/Информация : Audio Coding 3
Расширение режима : CM (complete main)
Параметр Endianness формата : Big
Идентификатор кодека : 2000
Продолжительность : 26 м.
Вид битрейта : Постоянный
Битрейт : 192 Кбит/сек
Каналы : 2 канала
Расположение каналов : Front: L R
Частота : 48,0 КГц
Битовая глубина : 16 бит
Метод сжатия : С потерями
Размер потока : 36,7 Мбайт (8%)
Выравнивание : Разделение по промежуткам
Продолжительность промежутка : 40 мс. (1,00 видеокадр)
Время предзагрузки промежутка : 500 мс.

Скриншоты

Other forum [Profile] [PM]
Display posts from previous:    
Reply to topic

The time now is: Today 02:43

All times are GMT + 3 Hours



You cannot post new topics in this forum
You cannot reply to topics in this forum
You cannot edit your posts in this forum
You cannot delete your posts in this forum
You cannot vote in polls in this forum
You cannot attach files in this forum
You cannot download files in this forum