Today is a free download without charge Download

Владимир Познер в программе "Talk" с Ильей Пономаревым (2012) WEBRip 720р

Reply to topic
 
Author
Message

Omen ®

Longevity: 9 years 1 month

Posts: 181086

Торрент-статистика

Post 28-Jan-2013 04:34

[Quote]


Владимир Познер в программе "Talk" с Ильей Пономаревым
Год выпуска: 28 ноября 2012
Жанр: Общественно-политические передачи
Продолжительность: 39:40
Описание: Гость передачи - журналист Владимир Познер - рассказал о закулисной жизни российского телевидения, об инициативе создания общественного ТВ, а также о своем отношении к Владимиру Путину, Эдуарду Лимонову, Сергею Удальцову, Алексею Навальному. Поговорили и о том, почему на выборах в США проиграл Митт Ромни, и как Бараку Обаме будет тяжело строить дальнейшие отношения с Россией из-за списка Магнитского.
Источник: Официальный сайт Владимира Познера
Качество: WEBRip
Формат: MP4
Видео кодек: H.264
Аудио кодек: AAC
Видео: AVC, 1280x720, 16:9, 1102 kbps, 25 fps.
Аудио: AAC, 192 kbps, 44,1 kHz, 2 ch.

MediaInfo:

Общее
Формат : MPEG-4
Профиль формата : Base Media / Version 2
Идентификатор кодека : mp42
Размер файла : 368 Мбайт
Продолжительность : 39 м.
Режим общего битрейта : Переменный
Общий поток : 1297 Кбит/сек
Дата кодирования : UTC 2012-11-27 03:47:02
Дата пометки : UTC 2012-11-27 03:47:02
gsst : 0
gstd : 2380926
gssd : BADC210A3HH1354196071086674
gshh : o-o---preferred---sn-cxg7en76---v23---lscache4.c.youtube.com
Видео
Идентификатор : 1
Формат : AVC
Формат/Информация : Advanced Video Codec
Профиль формата : [email protected].1
Параметр CABAC формата : Да
Параметр ReFrames формата : 1 кадр
Идентификатор кодека : avc1
Идентификатор кодека/Информация : Advanced Video Coding
Продолжительность : 39 м.
Битрейт : 1102 Кбит/сек
Максимальный битрейт : 2433 Кбит/сек
Ширина : 1280 пикселей
Высота : 720 пикселей
Соотношение сторон : 16:9
Режим частоты кадров : Постоянный
Частота кадров : 25,000 кадров/сек
Цветовое пространство : YUV
Субдискретизация насыщенности : 4:2:0
Битовая глубина : 8 бит
Тип развёртки : Прогрессивная
Бит/(Пиксели*Кадры) : 0.048
Размер потока : 313 Мбайт (85%)
Дата пометки : UTC 2012-11-27 03:47:03
Аудио
Идентификатор : 2
Формат : AAC
Формат/Информация : Advanced Audio Codec
Профиль формата : LC
Идентификатор кодека : 40
Продолжительность : 39 м.
Вид битрейта : Переменный
Битрейт : 192 Кбит/сек
Максимальный битрейт : 206 Кбит/сек
Каналы : 2 канала
Расположение каналов : Front: L R
Частота : 44,1 КГц
Метод сжатия : С потерями
Размер потока : 54,5 Мбайт (15%)
Заголовок : IsoMedia File Produced by Google, 5-11-2011
Дата кодирования : UTC 2012-11-27 03:47:03
Дата пометки : UTC 2012-11-27 03:47:03
Other forum [Profile] [PM]
Similar theme
Forum Topic Author Torrent Replies Last Post
./templates/default/images/folder_dl.gif Разное Владимир Биткин | Сводный каталог монет императорской России регулярного чекана [2000] [PDF] UndegraundMen
1 | 0

3 | 1576

1

2016-12-25 22:08
Anonymous Latest
Display posts from previous:    
Reply to topic

The time now is: Today 10:31

All times are GMT + 3 Hours



You cannot post new topics in this forum
You cannot reply to topics in this forum
You cannot edit your posts in this forum
You cannot delete your posts in this forum
You cannot vote in polls in this forum
You cannot attach files in this forum
You cannot download files in this forum