Today is a free download without charge Download

Горький вкус свободы / A Bitter Taste of Freedom (2011) DVB Sauliux

Reply to topic
 
Author
Message

Omen ®

Longevity: 9 years

Posts: 181086

Торрент-статистика

Post 28-Jan-2013 04:34

[Quote]


Информация о фильме
Название: Горький вкус свободы
Оригинальное название: A Bitter Taste of Freedom
Год выхода: 2011
Жанр: Документальный
Режиссер: Марина Голдовская
В ролях: Анна Политковская, Илья Политковский, Вера Политковская, Раиса Мазепа, Елена Кудимова, Михаил Горбачев, Каринна Москаленко, Дмитрий Муратов, Елена Барановская, Александр Политковский, Александр Мнацеканян, Хеда Саратова, Светлана Ганушкина, Игорь Сикорский, Алексей Венедиктов, Дмитрий Быков, Евгения Альбац, Елена Морозова, Мария Гнедых, Алла Боссарат, Сергей Соколов
О фильме:
Своим бесстрашным стремлением приоткрыть завесу над преступлениями правительства России Анна Политковская в кого-то вселяла чувство уважения, а в кого-то — страх. Обозреватель, занимавшаяся журналистскими расследованиями для «Новой газеты», оплота московских либералов, часто становилась единственным представителем интересов жертв российского правительства. 7 октября 2006-го года она была убита просто за то, что выполняла свою работу.
Доп. информация: Фильм "Горький вкус свободы" Марина Голдовская начинала снимать двадцать лет назад, задумывая его как историю семьи Политковских (прежде всего Александра, который был ее студентом) на фоне истории страны. Но постепенно она сконцентрировалась на Анне Политковской. Картина получила множество фестивальных наград, выдвигалась на "Оскара", а в России была показана в рамках фестиваля документального кино "Артдокфест".
Media Info:

Скрытый текст

Общее
Полное имя : C:UsersAmberDesktopГорький вкус свободы (2011) [DVB].mpg
Формат : MPEG-PS
Размер файла : 1,44 Гбайт
Продолжительность : 1 ч. 26 м.
Режим общего битрейта : Переменный
Общий поток : 2394 Кбит/сек
Видео
Идентификатор : 224 (0xE0)
Формат : MPEG Video
Версия формата : Version 2
Профиль формата : [email protected]
Параметр BVOP формата : Да
Параметр матрицы формата : Выборочная
Параметр GOP формата : Variable
Продолжительность : 1 ч. 26 м.
Вид битрейта : Переменный
Битрейт : 2155 Кбит/сек
Максимальный битрейт : 15,0 Мбит/сек
Ширина : 720 пикселей
Высота : 576 пикселей
Соотношение сторон : 4:3
Частота кадров : 25,000 кадров/сек
Стандарт вещания : PAL
Цветовое пространство : YUV
Субдискретизация насыщенности : 4:2:0
Битовая глубина : 8 бит
Тип развёртки : Чересстрочная
Порядок развёртки : Верхнее поле первое
Метод сжатия : С потерями
Бит/(Пиксели*Кадры) : 0.208
Размер потока : 1,30 Гбайт (90%)
Аудио
Идентификатор : 192 (0xC0)
Формат : MPEG Audio
Версия формата : Version 1
Профиль формата : Layer 2
Продолжительность : 1 ч. 26 м.
Вид битрейта : Постоянный
Битрейт : 192 Кбит/сек
Каналы : 2 канала
Частота : 48,0 КГц
Метод сжатия : С потерями
Задержка видео : 8 мс.
Размер потока : 118 Мбайт (8%)
Официальный сайт
Страна: США, Швеция
Продолжительность: 01:26:05
Перевод: Не требуется
Файл
Кодек: MPEG-2
Качество: DVB
Видео: MPEG-2, [email protected] (4/3), 25 fps, ~2155 Mbps (0.208 bit/pixel)
Звук: MPEG Audio Layer 2, 48.0 KHz, 2 ch, 192 Kbps, CBR
Субтитры: нет
Семпл

Скриншоты

Other forum [Profile] [PM]
Display posts from previous:    
Reply to topic

The time now is: Today 17:01

All times are GMT + 3 Hours



You cannot post new topics in this forum
You cannot reply to topics in this forum
You cannot edit your posts in this forum
You cannot delete your posts in this forum
You cannot vote in polls in this forum
You cannot attach files in this forum
You cannot download files in this forum