Today is a free download without charge Download

Голос. Финал [Выпуск 13] (2012) HDTV 1080i

Reply to topic
 
Author
Message

Omen ®

Longevity: 9 years

Posts: 181086

Торрент-статистика

Post 28-Jan-2013 04:34

[Quote]


Голос
Выпуск 13

Оригинальное название: Голос
Год выпуска: 2012
Жанр: ТВ-Шоу, развлекательный
Выпущено: Россия, Первый канал
Ведущий: Дмитрий Нагиев
Продолжительность: 2h 14mn
Язык: Русский
Первый канал объявляет о запуске нового музыкального проекта "Голос", участники которого отбираются исключительно по своим вокальным данным. В шоу проходят только те, кто умеет петь, и делает это очень хорошо.Заявки для участия в шоу принимались вплоть до начала сентября. Всего было принято свыше 10 тысяч заявок, из которых лишь каждая десятая преодолела стадию предварительного отбора. Из 1 тысячи претендентов в ходе очных прослушиваний и собеседований было отобрано 150 человек. Именно они станут главными героями первого этапа конкурса – "Прослушиваний вслепую".
Наставники: Пелагея, Дима Билан, Александр Градский, Леонид Агутин.

Скриншоты

Скринлист

MI

General #1
ID : 1 (0x1)
Complete name : Голос, Финал, Выпуск № 13 - (29.12.2012)_ HDTV by Kaddafi.ts
Format : MPEG-TS
File size : 11.9 GiB
Duration : 2h 14mn
Overall bit rate : 12.7 Mbps
Video #305
ID : 305 (0x131)
Menu ID : 1 (0x1)
Format : AVC
Format/Info : Advanced Video Codec
Format profile : [email protected]
Format settings, CABAC : Yes
Format settings, ReFrames : 3 frames
Codec ID : 27
Duration : 2h 14mn
Bit rate : 11.6 Mbps
Width : 1 920 pixels
Height : 1 080 pixels
Display aspect ratio : 16:9
Frame rate : 25.000 fps
Standard : Component
Color space : YUV
Chroma subsampling : 4:2:0
Bit depth : 8 bits
Scan type : Interlaced
Scan order : Top Field First
Bits/(Pixel*Frame) : 0.224
Stream size : 10.9 GiB (92%)
Color primaries : BT.709-5, BT.1361, IEC 61966-2-4, SMPTE RP177
Transfer characteristics : BT.709-5, BT.1361
Matrix coefficients : BT.709-5, BT.1361, IEC 61966-2-4 709, SMPTE RP177
Audio #415
ID : 415 (0x19F)
Menu ID : 1 (0x1)
Format : AC-3
Format/Info : Audio Coding 3
Mode extension : CM (complete main)
Codec ID : 6
Duration : 2h 14mn
Bit rate mode : Constant
Bit rate : 384 Kbps
Channel(s) : 2 channels
Channel positions : Front: L R
Sampling rate : 48.0 KHz
Bit depth : 16 bits
Compression mode : Lossy
Stream size : 369 MiB (3%)
Language : Russian
-Качество: Full HD, 1080i
Формат: TS
Видео кодек: AVC
Аудио кодек: AC3
Видео: H.264, 1920x1080 (16:9) 25.00fps , 11.6 Mbps
Аудио: AC3, 48 kHz, 2 ch, 384 kbps

Other forum [Profile] [PM]
Display posts from previous:    
Reply to topic

The time now is: Today 05:07

All times are GMT + 3 Hours



You cannot post new topics in this forum
You cannot reply to topics in this forum
You cannot edit your posts in this forum
You cannot delete your posts in this forum
You cannot vote in polls in this forum
You cannot attach files in this forum
You cannot download files in this forum