Today is a free download without charge Download

Барышня и Кулинар [Выпуск 71-113] (2012) SATRip

Reply to topic
 
Author
Message

Omen ®

Longevity: 9 years

Posts: 181086

Торрент-статистика

Post 28-Jan-2013 04:33

[Quote]


[Пак] Барышня и Кулинар / (Выпуск 71-113 из ??)
Год выпуска: 2010-2012
Страна: Россия
Жанр: Кулинарное Шоу
Продолжительность: 26 минут выпуск
Автор идеи: Михаил Плотников
Ведущие: Михаил Плотников и Анна Семенович
Выпущено: "Киностудия ФУ 24" по заказу "ТВ Центр"

Кулинарная программа с участием двух постоянных ведущих. Опытный кулинар Михаил Плотников будет еженедельно давать уроки приготовления вкусной и здоровой пищи своей ученице – Анне Семенович. Все, кто хочет научиться правильно и хорошо готовить, смогут это сделать с "Барышней и кулинаром". Непринужденный разговор о тонкостях кулинарного искусства и не только, множество интересных рецептов и разных деталей – все это ждет зрителей.
"Барышня и кулинар" – не просто кулинарная программа, а шоу! Семенович и Плотников будут не просто готовить, но и рассказывать о продуктах и блюдах. Ведущий сыплет веселыми кулинарными байками из своей жизни, приводит "кулинарные" цитаты из художественной литературы… А Анна делится с телезрительницами своими женскими хитростями, как грамотно выстраивать отношения с мужчиной.

Внимание! Раздача ведётся путём добавления новых выпусков

Внимание! Раздача ведётся путём добавления новых выпусков, при каждом добавлении создаётся новый торрент. Чтобы начать докачку нового выпуска, пользователям необходимо сделать следующее:
(1) остановить скачивание,
(2) удалить старый торрент у себя из клиента (старые выпуски удалять не надо),
(3) скачать новый торрент и запустить его у себя в клиенте вместо старого, при этом указать клиенту путь в старую папку, куда и должно происходить скачивание новых выпусков.
Ваш клиент при этом должен произвести хеширование (проверку) старой папки (если не производит сам – помогите ему сделать это), и будет докачивать только те выпуски, которых у вас ещё нет. Старые выпуски при этом не удаляются, а продолжают раздаваться!
Eсли вы уже удалили старые выпуски, то предотвратить повторную закачку старых выпусков можно, отжав галочку в соответсвующих местах при запуске нового торрента.

Техданные

General
Complete name : D:TorrentsАнна СеменовичПроектыБарышня и Кулинар 71-140Baryshnja i Kulinar 107 (18.11.2012) (SATRip By Tarjaa).avi
Format : AVI
Format/Info : Audio Video Interleave
File size : 304 MiB
Duration : 25mn 58s
Overall bit rate : 1 638 Kbps
Writing application : VirtualDubMod 1.5.10.3 | www.virtualdub-fr.org || (build 2550/release)
Writing library : VirtualDubMod build 2550/release
Video
ID : 0
Format : MPEG-4 Visual
Format profile : Advanced [email protected]
Format settings, BVOP : 1
Format settings, QPel : No
Format settings, GMC : No warppoints
Format settings, Matrix : Default (H.263)
Codec ID : XVID
Codec ID/Hint : XviD
Duration : 25mn 58s
Bit rate : 1 500 Kbps
Width : 704 pixels
Height : 528 pixels
Display aspect ratio : 4:3
Frame rate : 25.000 fps
Color space : YUV
Chroma subsampling : 4:2:0
Bit depth : 8 bits
Scan type : Progressive
Compression mode : Lossy
Bits/(Pixel*Frame) : 0.161
Stream size : 279 MiB (92%)
Writing library : XviD 1.2.1 (UTC 2008-12-04)
Audio
ID : 1
Format : MPEG Audio
Format version : Version 1
Format profile : Layer 3
Codec ID : 55
Codec ID/Hint : MP3
Duration : 25mn 58s
Bit rate mode : Constant
Bit rate : 128 Kbps
Channel(s) : 2 channels
Sampling rate : 48.0 KHz
Compression mode : Lossy
Stream size : 23.8 MiB (8%)
Alignment : Aligned on interleaves
Interleave, duration : 40 ms (1.00 video frame)
Interleave, preload duration : 504 ms
Writing library : LAME3.98r
Encoding settings : -m s -V 4 -q 2 -lowpass 17 -b 128
------------------------------------------------------------------------------------------
General
Complete name : D:TorrentsАнна СеменовичПроектыБарышня и Кулинар 71-140Baryshnja i Kulinar 108 (25.11.2012) (IPTVRip By Anutka4Love80).avi
Format : AVI
Format/Info : Audio Video Interleave
File size : 304 MiB
Duration : 25mn 57s
Overall bit rate : 1 640 Kbps
Writing application : XviD4PSP 6.0 / 53.6.0
Video
ID : 0
Format : MPEG-4 Visual
Format profile : [email protected]
Format settings, BVOP : No
Format settings, QPel : No
Format settings, GMC : No warppoints
Format settings, Matrix : Default (H.263)
Codec ID : XVID
Codec ID/Hint : XviD
Duration : 25mn 57s
Bit rate : 1 499 Kbps
Width : 720 pixels
Height : 576 pixels
Display aspect ratio : 4:3
Frame rate : 23.976 fps
Standard : PAL
Color space : YUV
Chroma subsampling : 4:2:0
Bit depth : 8 bits
Scan type : Progressive
Compression mode : Lossy
Bits/(Pixel*Frame) : 0.151
Stream size : 278 MiB (91%)
Writing library : XviD 64
Audio
ID : 1
Format : MPEG Audio
Format version : Version 1
Format profile : Layer 3
Mode : Joint stereo
Mode extension : MS Stereo
Codec ID : 55
Codec ID/Hint : MP3
Duration : 25mn 56s
Bit rate mode : Constant
Bit rate : 128 Kbps
Channel(s) : 2 channels
Sampling rate : 48.0 KHz
Compression mode : Lossy
Stream size : 23.8 MiB (8%)
Alignment : Aligned on interleaves
Interleave, duration : 24 ms (0.58 video frame)
Writing library : LAME3.98.2

Рецепты от Барышни и Кулинара (Видео рецептов)

Ниже будет размещен список видео рецептов от Барышни и Кулинара.
Ниже будет размещен список видео рецептов от Барышни и Кулинара.
71 выпуск:
Сырные рулетики
Гречневое ризотто с сыром
Сырный пирог
72 выпуск:
"Улетный" коктейль
Фасоль с курицей
Котлеты из индейки
73 выпуск:
Гречневые оладьи
Ленивые вареники с картошкой
Карп с капустой и икрой
74 выпуск:
Маковый кекс
Коктейль "Эликсир любви"
Говяжьи близнецы
75 выпуск:
Салат "Оливье"
Банановый торт
Тушеная свинина с лапшой
76 выпуск:
Жгвацет из курятины
Тортик "Орех Иванович"
77 выпуск:
Блины с печенью трески
Блины сладкие
Цыплята духовые по-московски
78 выпуск:
Салат "Джек Воробей"
Коктейль "Кровавая Мэри"
Рыба "Васко да Гама"
79 выпуск:
Овощные конусы
Пивной суп
Форель в овсянке
80 выпуск:
Салат "Цыганский"
Суп с гречкой
Яблоки запечённые с ромом и мороженым
81 выпуск:
Оладьи из манки
Капустно-грибной салат
Капуста по-польски
Запеканка с капустой
82 выпуск:
И рыба, и мясо
Царь Горох 2
Вишнёво-шоколадное печенье
83 выпуск:
Средиземноморский шницель
Томато ризотто
Мини-пиццы с помидорами
84 выпуск:
Шпинат с яйцом
Суп "Минестра"
Паста с соусом "Песто"
85 выпуск:
Кексы с кинзой и тархуном
Полпеты - хорватские котлеты
Тушёная капуста по-чешски
86 выпуск:
Сангрия с колой
Рис с луками
Телятина с вишнями
87 выпуск:
Торт "ТВ-ценности"
Баранина "Вечные ценности"
Ракушки "Вечные ценности"
88 выпуск:
Суп "Дикий ангел"
Чапфайня "Дон Фернандо"
Пирог "Изаура"
89 выпуск:
Компот "Если бы Карлсон знал"
Сэндвичи из сухофруктов
Паста "Мечта Буратино"
Запеканка "Том и Джерри"
90 выпуск:
Запечённые груши
Пьяные спагетти
Риболитта "Гордость Тосканы"
91 выпуск:
Салат "Отелло"
Перепела по-датски
Салат "Датский"
Печенье "Ромео и Джульетта"
92 выпуск:
Запечённые яйца
"Перепелиные гнёздышки"
"Услада из авокадо"
Кабачковые оладьи
Манная запеканка с чёрносмородиновым соусом
93 выпуск:
Клапшот
Сувлаки
"Черри пай"
94 выпуск:
Лимонад из киви
Запечённые куриные фрикадельки
Щи
95 выпуск:
Эмпанадас
Курица с рукколой
Запеканка счастья
96 выпуск:
Пирожные с малиной
Суп в хлебной миске
Макароны-гнёзда с грибным соусом
97 выпуск:
Лимонно-маковый пирог
Гречневая каша с грибами
Овощной суп по-мавритански
98 выпуск:
Холодный суп из кабачков
Мусс из манки
Закуска из фасоли
99 выпуск:
Сырные шарики
Яблочное варенье с грецкими орехами
Спагетти Болоньезе
100 выпуск:
Свиная рулька
Суп "Том Ям"
Торт с белым шоколадом
101 выпуск:
Чили с кукурузой
Паста-суп с кукурузой
Печёная кукуруза
102 выпуск:
Салат "Прощай, лето!"
Коржики "Нам всё равно"
Суп "Здравствуй, осень!"
103 выпуск:
Тыквенный суп-пюре
Фрикадельки с печёной тыквой
Салат с тыквой и фетой
104 выпуск:
Кёнигсбергские клопсы
Суп "Дас ист фантастиш!"
Кекс "Фройлен Зина"
105 выпуск:
Печенье "Чёртики с секретом"
Маффины - оборотни
Ризотто Дракулы
106 выпуск:
Патиссоны с помидорами и мятой
Шорпа с цыплёнком
Хлеб с ветчиной и сыром
107 выпуск:
Чихиртма
Салат из курицы с гранатом
Мини-галеты с инжиром
108 выпуск:
Вкусняшка "Хренодёрная"
Оладьи из манки
Курица "От бабушки"
109 выпуск:
Паштет из авокадо
Яблочная запеканка
Паста с песто и фисташками
110 выпуск:
Облепиховый чай
Бутерброд "Лёгкий"
Сэндвичи из кабачков
Брускетта-бургер
111 выпуск:
Испанская икра из болгарских перцев
Греческий шницель
Итальянский салат с сыром и макаронами
112 выпуск:
Салат "Дискотека Авария"
Змеиный торт
Кролик с тыквой
113 выпуск:
Шоколадные ёлочные игрушки
Миндальное ризотто с базиликом
Баранина, запечённая с курагой и розмарином
114 выпуск:
Пример:
Выпуск от 15.01.2012


Other forum [Profile] [PM]
Display posts from previous:    
Reply to topic

The time now is: Today 06:17

All times are GMT + 3 Hours



You cannot post new topics in this forum
You cannot reply to topics in this forum
You cannot edit your posts in this forum
You cannot delete your posts in this forum
You cannot vote in polls in this forum
You cannot attach files in this forum
You cannot download files in this forum