Today is a free download without charge Download

Новогоднее поздравление Президента Республики Беларусь Лукашенко А.Г. (2012) DVBRip

Reply to topic
 
Author
Message

Omen ®

Longevity: 9 years 1 month

Posts: 181086

Торрент-статистика

Post 28-Jan-2013 04:33

[Quote]


Информация о фильме
Название: Новогоднее поздравление Президента Республики Беларусь Лукашенко А.Г. (2012) DVBRip
Год выхода: 2012
Производство: Белтелерадиокомпания
Страна: Беларусь
Продолжительность программы: 00:06:42
Перевод: Не требуется
Описание: Новогоднее обращение Президента Республики Беларусь Александра Лукашенко к белорусскому народу.
Файл
Кодек: XviD
Качество: DVBRip
Видео: 640x480, 25 к/с, 4:3, 1200 кбит/с
Звук: MP3, 128 кбит/с, 48 кгц, стерео

MediaInfo

Format : AVI
Format/Info : Audio Video Interleave
File size : 64.0 MiB
Duration : 6mn 42s
Overall bit rate : 1 333 Kbps
Writing application : VirtualDubMod 1.5.10.2 (build 2540/release)
Writing library : VirtualDubMod build 2540/release
Video
ID : 0
Format : MPEG-4 Visual
Format profile : Advanced [email protected]
Format settings, BVOP : 2
Format settings, QPel : Yes
Format settings, GMC : No warppoints
Format settings, Matrix : Default (MPEG)
Muxing mode : Packed bitstream
Codec ID : XVID
Codec ID/Hint : XviD
Duration : 6mn 42s
Bit rate : 1 195 Kbps
Width : 640 pixels
Height : 480 pixels
Display aspect ratio : 4:3
Frame rate : 25.000 fps
Color space : YUV
Chroma subsampling : 4:2:0
Bit depth : 8 bits
Scan type : Progressive
Compression mode : Lossy
Bits/(Pixel*Frame) : 0.156
Stream size : 57.4 MiB (90%)
Writing library : XviD 1.2.1 (UTC 2008-12-04)
Audio
ID : 1
Format : MPEG Audio
Format version : Version 1
Format profile : Layer 3
Mode : Joint stereo
Mode extension : MS Stereo
Codec ID : 55
Codec ID/Hint : MP3
Duration : 6mn 42s
Bit rate mode : Constant
Bit rate : 128 Kbps
Channel(s) : 2 channels
Sampling rate : 48.0 KHz
Compression mode : Lossy
Stream size : 6.14 MiB (10%)
Alignment : Aligned on interleaves
Interleave, duration : 40 ms (1.00 video frame)
Interleave, preload duration : 504 ms
Other forum [Profile] [PM]
Display posts from previous:    
Reply to topic

The time now is: Today 01:16

All times are GMT + 3 Hours



You cannot post new topics in this forum
You cannot reply to topics in this forum
You cannot edit your posts in this forum
You cannot delete your posts in this forum
You cannot vote in polls in this forum
You cannot attach files in this forum
You cannot download files in this forum