Today is a free download without charge Download

BBC: Новогодний салют в Лондоне / BBC: London. New Year's Fireworks (2013) HDTVRip 720p - Valegorov

Reply to topic
 
Author
Message

Omen ®

Longevity: 9 years 1 month

Posts: 181086

Торрент-статистика

Post 28-Jan-2013 04:32

[Quote]


Информация о фильме
Название: BBC: Новогодний салют в Лондоне
Оригинальное название: BBC: London. New Year's Fireworks
Год выпуска: 2013
Жанр: Репортаж
О фильме: Телевизионный репортаж о новогоднем салюте в Лондоне.
Выпущено: BBC
Продолжительность: 00:14:44
Перевод: Не требуется
Файл
Кодек: Н264
Качество: HDTVRip (720p)
Видео: MPEG-4 AVC, 5001 Кбит/с, 1280x720
Звук: MP2, 2 ch, 256 Кбит/с

MI

General
Complete name : London_New.Years.Fireworks.2013.HDTVRip(720p)-Valegorov.mkv
Format : Matroska
File size : 554 MiB
Duration : 14mn 44s
Overall bit rate : 5 255 Kbps
Movie name : London 2013 New Years Fireworks [ve]
Encoded date : UTC 2013-01-03 07:53:21
Writing application : mkvmerge v2.1.0 ('Another Place To Fall') built on Aug 19 2007 13:40:07
Writing library : libebml v0.7.7 + libmatroska v0.8.1
Video
ID : 1
Format : AVC
Format/Info : Advanced Video Codec
Format profile : [email protected]
Format settings, CABAC : Yes
Format settings, ReFrames : 7 frames
Muxing mode : Container [email protected]
Codec ID : V_MPEG4/ISO/AVC
Duration : 14mn 44s
Bit rate : 5 001 Kbps
Width : 1 280 pixels
Height : 720 pixels
Display aspect ratio : 16:9
Frame rate : 25.000 fps
Color space : YUV
Chroma subsampling : 4:2:0
Bit depth : 8 bits
Scan type : Progressive
Bits/(Pixel*Frame) : 0.217
Stream size : 516 MiB (93%)
Title : London 2013 New Years Fireworks [ve]
Writing library : x264 core 114 r1924 08d04a4
Encoding settings : cabac=1 / ref=7 / deblock=1:-3:-3 / analyse=0x3:0x2 / me=umh / subme=10 / psy=1 / psy_rd=1.20:0.00 / mixed_ref=1 / me_range=64 / chroma_me=1 / trellis=2 / 8x8dct=1 / cqm=0 / deadzone=21,11 / fast_pskip=0 / chroma_qp_offset=-2 / threads=3 / sliced_threads=0 / nr=0 / decimate=1 / interlaced=0 / constrained_intra=0 / bframes=3 / b_pyramid=2 / b_adapt=2 / b_bias=0 / direct=3 / weightb=1 / open_gop=0 / weightp=2 / keyint=250 / keyint_min=25 / scenecut=40 / intra_refresh=0 / rc_lookahead=40 / rc=2pass / mbtree=1 / bitrate=5001 / ratetol=1.0 / qcomp=0.60 / qpmin=10 / qpmax=51 / qpstep=4 / cplxblur=20.0 / qblur=0.5 / ip_ratio=1.40 / aq=2:1.50
Language : English
Audio
ID : 2
Format : MPEG Audio
Format version : Version 1
Format profile : Layer 2
Codec ID : A_MPEG/L2
Codec ID/Hint : MP2
Duration : 14mn 44s
Bit rate mode : Constant
Bit rate : 256 Kbps
Channel(s) : 2 channels
Sampling rate : 48.0 KHz
Stream size : 27.0 MiB (5%)
Language : English

Скриншоты


Релиз от: Valegorov
Other forum [Profile] [PM]
Display posts from previous:    
Reply to topic

The time now is: Today 16:05

All times are GMT + 3 Hours



You cannot post new topics in this forum
You cannot reply to topics in this forum
You cannot edit your posts in this forum
You cannot delete your posts in this forum
You cannot vote in polls in this forum
You cannot attach files in this forum
You cannot download files in this forum