Today is a free download without charge Download

Андрейка (1-2 серии из 2) (2012) [1080i] HDTV

Reply to topic
 
Author
Message

Omen ®

Longevity: 8 years 11 months

Posts: 181086

Торрент-статистика

Post 28-Jan-2013 02:36

[Quote]

-Андрейка (1-2 серии из 2) (2012) [1080i] HDTV- Русское название: Андрейка
Год выпуска: 2012
Производство: Россия
Жанр: Мелодрама
Режиссер: Виктория Держицкая
Сценарий: Ольга Ларионова
Актеры: Любовь Баханкова, Никита Тезин, Дмитрий Ратомский, Никита Зверев, Людмила Гаврилова, Мария Беккер, Яна Сексте, Станислав Эрдлей, Наталья Ноздрина, Екатерина Копанова, Максим Сапрыкин, Наталья Смирнова, Олег Кленов, Анастасия Новикова, Валерия Богук, Елизавета Кузнецова, Евгений Смирнов, Ива Солоницына, Регина Полякова, Иван Гарьковец, Галина Стаханова, Юлия Абрамова
Описание фильма:
Когда Маша впервые увидела у ограды детского дома худого невысокого подростка с умными глазами, она еще не знала, что этот мальчик - ее судьба. Она однажды вступилась за него, и с тех пор Маша и Андрейка - как она ласково называла парнишку-стали друзьями. Он влюбился в нее с первого взгляда, а она ласково подшучивала над ним, и ждала своего принца… Однако сказка обернулась кошмаром. Встреченный ею "мажор" Дима оказался насильником и негодяем. А спустя несколько недель после того, как Дима надругался над ней, Маша поняла, что беременна…От самоубийства ее спас верный Андрейка. Узнал все и решил отомстить подлецу. В драке он случайно нанес Диме смертельный удар. Суд приговорил никому не нужного детдомовца к шести годам колонии… Маша, оплакивая свою и Андрейкину судьбы, уехала к тетке в Москву...- -Продолжительность: 01:30:00 + 01:31:00
Качество видео: HDTV (1080i)
Видеокодек: AVC
Битрейт видео: 7822 Кбит/сек
Размер кадра: 1920x1080
Аудио : Русский, MP2, 2 ch, 192 Кбит/с

MediaInfo

Код:
Общее
Идентификатор                            : 1 (0x1)
Полное имя                               : E:\Раздачи\Видео\Андрейка (1-2 серии из 2) (2012) [1080i] HDTV\1.ts
Формат                                   : MPEG-TS
Размер файла                             : 5,32 Гбайт
Продолжительность                        : 1 ч. 30 м.
Общий поток                              : 8434 Кбит/сек
Видео
Идентификатор                            : 2911 (0xB5F)
Идентификатор меню                       : 1 (0x1)
Формат                                   : AVC
Формат/Информация                        : Advanced Video Codec
Профиль формата                          : [url=mailto:[email protected]][email protected][/url]
Параметр CABAC формата                   : Да
Параметр ReFrames формата                : 4 кадра
Идентификатор кодека                     : 27
Продолжительность                        : 1 ч. 30 м.
Битрейт                                  : 7823 Кбит/сек
Ширина                                   : 1920 пикселей
Высота                                   : 1080 пикселей
Соотношение сторон                       : 16:9
Частота кадров                           : 25,000 кадров/сек
Цветовое пространство                    : YUV
Субдискретизация насыщенности            : 4:2:0
Битовая глубина                          : 8 бит
Тип развёртки                            : MBAFF
Бит/(Пиксели*Кадры)                      : 0.151
Размер потока                            : 4,94 Гбайт (93%)
Аудио
Идентификатор                            : 2912 (0xB60)
Идентификатор меню                       : 1 (0x1)
Формат                                   : MPEG Audio
Версия формата                           : Version 1
Профиль формата                          : Layer 2
Идентификатор кодека                     : 3
Продолжительность                        : 1 ч. 30 м.
Вид битрейта                             : Постоянный
Битрейт                                  : 192 Кбит/сек
Каналы                                   : 2 канала
Частота                                  : 48,0 КГц
Метод сжатия                             : С потерями
Размер потока                            : 124 Мбайт (2%)
Язык                                     : Russian
Общее
Идентификатор                            : 1 (0x1)
Полное имя                               : E:\Раздачи\Видео\Андрейка (1-2 серии из 2) (2012) [1080i] HDTV\2.ts
Формат                                   : MPEG-TS
Размер файла                             : 5,38 Гбайт
Продолжительность                        : 1 ч. 31 м.
Общий поток                              : 8432 Кбит/сек
Видео
Идентификатор                            : 2911 (0xB5F)
Идентификатор меню                       : 1 (0x1)
Формат                                   : AVC
Формат/Информация                        : Advanced Video Codec
Профиль формата                          : [url=mailto:[email protected]][email protected][/url]
Параметр CABAC формата                   : Да
Параметр ReFrames формата                : 4 кадра
Идентификатор кодека                     : 27
Продолжительность                        : 1 ч. 31 м.
Битрейт                                  : 7821 Кбит/сек
Ширина                                   : 1920 пикселей
Высота                                   : 1080 пикселей
Соотношение сторон                       : 16:9
Частота кадров                           : 25,000 кадров/сек
Цветовое пространство                    : YUV
Субдискретизация насыщенности            : 4:2:0
Битовая глубина                          : 8 бит
Тип развёртки                            : MBAFF
Бит/(Пиксели*Кадры)                      : 0.151
Размер потока                            : 4,99 Гбайт (93%)
Аудио
Идентификатор                            : 2912 (0xB60)
Идентификатор меню                       : 1 (0x1)
Формат                                   : MPEG Audio
Версия формата                           : Version 1
Профиль формата                          : Layer 2
Идентификатор кодека                     : 3
Продолжительность                        : 1 ч. 31 м.
Вид битрейта                             : Постоянный
Битрейт                                  : 192 Кбит/сек
Каналы                                   : 2 канала
Частота                                  : 48,0 КГц
Метод сжатия                             : С потерями
Размер потока                            : 125 Мбайт (2%)
Язык                                     : Russian
Скриншоты:
       
       -[url=/forum/viewtopic.php?t=586837]Андрейка (4 серии из 4) (2012) SATRip[/url]-Время раздачи: 9.00 - 23.00 (по мере возможности...)
Other forum [Profile] [PM]
Similar theme
Forum Topic Author Torrent Replies Last Post
./templates/default/images/folder_dl.gif Архив Андрей Васильев | Цикл «Файролл» [8 книг] (2014) [FB2] Omen
1 | 0

0 | 3272

1

2014-11-16 14:59
Omen Latest
./templates/default/images/folder_dl.gif Архив Андрей Васильев | Собрание сочинений [23 книги] (2013-2016) [FB2] moralis
1 | 0

0 | 998

0

2016-09-11 12:41
moralis Latest
Display posts from previous:    
Reply to topic

The time now is: Today 12:40

All times are GMT + 3 Hours



You cannot post new topics in this forum
You cannot reply to topics in this forum
You cannot edit your posts in this forum
You cannot delete your posts in this forum
You cannot vote in polls in this forum
You cannot attach files in this forum
You cannot download files in this forum