Сегодня идет свободное скачивание без начисления Download

Собачье сердце (Владимир Бортко)[1988 ,Фантастика, Драма, Комедия ]BDRip [720p]

Ответить на тему
 
Автор
Сообщение

Omen ®

Стаж: 5 лет 10 месяцев

Сообщений: 184329

Торрент-статистика

Пост 28-Янв-2013 01:04

[Цитировать]

-Собачье сердце - Русское название: Собачье сердце
Год выпуска: 1988
Производство: СССР
Жанр: Фантастика, Драма, Комедия
Продолжительность: 02:15:56 (2 серии)
Перевод: Не требуется (Русский)
Субтитры: Отсутствуют
Режиссер: Владимир Бортко
Актеры: Владимир Толоконников, Евгений Евстигнеев, Борис Плотников, Роман Карцев, Нина Русланова, Ольга Мелихова, Алексей Миронов, Анжелика Неволина, Наталья Фоменко, Иван Ганжа
Описание фильма:
Профессор Преображенский ставит смелые опыты, пытаясь превратить собаку Шарика в равного себе во всем человека. В результате получается некто Шариков. К сожалению, опыт доказывает, что собаке лучше оставаться собакой.

Дата мировой премьеры: 19 ноября 1988
Дата выхода DVD релиза: 1 апреля 2011, «Парадиз Медиа»
Дата выхода Blu-Ray релиза: 25 октября 2011, «Парадиз Медиа»
Качество видео: BDRip [720p]
Видеокодек: MPEG-4 AVC/H.264
Видео: 948x720, ~6674 Кбит/с
Аудио 1: DTS, 6 ch, 1510 Кбит/с [Русский]
Аудио 2: AC3, 1 ch, 192 Кбит/с [Русский]

MediaInfo:

Общее
Уникальный идентификатор : 231218719292573870357555881240224369560 (0xADF31B03486DCFD5B579723DB4148B98)
Полное имя : Sobachje.Serdse.1988.BDRip.720p.mkv
Формат : Matroska
Версия формата : Version 2
Размер файла : 7,95 Гбайт
Продолжительность : 2 ч. 15 м.
Общий поток : 8377 Кбит/сек
Название фильма : HANSMER
Дата кодирования : UTC 2011-11-27 13:17:43
Программа кодирования : mkvmerge v5.0.1 ('Es ist Sommer') built on Oct 9 2011 11:55:43
Библиотека кодирования : libebml v1.2.2 + libmatroska v1.3.0
Видео
Идентификатор : 1
Формат : AVC
Формат/Информация : Advanced Video Codec
Профиль формата : [url=mailto:[email protected]][email protected][/url]
Параметр CABAC формата : Да
Параметр ReFrames формата : 11 кадров
Идентификатор кодека : V_MPEG4/ISO/AVC
Продолжительность : 2 ч. 15 м.
Битрейт : 6674 Кбит/сек
Ширина : 948 пикселей
Высота : 720 пикселей
Соотношение сторон : 4:3
Частота кадров : 23,976 кадра/сек
Цветовое пространство : YUV
Субдискретизация насыщенности : 4:2:0
Битовая глубина : 8 бит
Тип развёртки : Прогрессивная
Бит/(Пиксели*Кадры) : 0.408
Размер потока : 6,18 Гбайт (78%)
Заголовок : Sobachje.Serdce.1988.Blu-ray.720p.x264-NiP
Библиотека кодирования : x264 core 119 r2106 07efeb4
Настройки программы : cabac=1 / ref=11 / deblock=1:-3:-3 / analyse=0x3:0x113 / me=umh / subme=11 / psy=1 / psy_rd=1.05:0.00 / mixed_ref=1 / me_range=48 / chroma_me=1 / trellis=2 / 8x8dct=1 / cqm=0 / deadzone=21,11 / fast_pskip=0 / chroma_qp_offset=-2 / threads=12 / sliced_threads=0 / nr=0 / decimate=0 / interlaced=0 / bluray_compat=0 / constrained_intra=0 / bframes=10 / b_pyramid=2 / b_adapt=2 / b_bias=0 / direct=3 / weightb=1 / open_gop=0 / weightp=2 / keyint=250 / keyint_min=23 / scenecut=40 / intra_refresh=0 / rc_lookahead=60 / rc=2pass / mbtree=0 / bitrate=6674 / ratetol=1.0 / qcomp=0.70 / qpmin=0 / qpmax=69 / qpstep=4 / cplxblur=20.0 / qblur=0.5 / vbv_maxrate=50000 / vbv_bufsize=62500 / nal_hrd=none / ip_ratio=1.40 / pb_ratio=1.20 / aq=2:0.80
Язык : English
Default : Да
Forced : Нет
Коэффициенты матрицы : BT.709-5, BT.1361, IEC 61966-2-4 709, SMPTE RP177
Аудио #1
Идентификатор : 2
Формат : DTS
Формат/Информация : Digital Theater Systems
Идентификатор кодека : A_DTS
Продолжительность : 2 ч. 15 м.
Вид битрейта : Постоянный
Битрейт : 1510 Кбит/сек
Каналы : 6 каналов
Расположение каналов : Front: L C R, Side: L R, LFE
Частота : 48,0 КГц
Битовая глубина : 24 бит
Метод сжатия : С потерями
Размер потока : 1,43 Гбайт (18%)
Язык : Russian
Default : Да
Forced : Нет
Аудио #2
Идентификатор : 3
Формат : AC-3
Формат/Информация : Audio Coding 3
Расширение режима : CM (complete main)
Идентификатор кодека : A_AC3
Продолжительность : 2 ч. 15 м.
Вид битрейта : Постоянный
Битрейт : 192 Кбит/сек
Каналы : 1 канал
Расположение каналов : Front: C
Частота : 48,0 КГц
Битовая глубина : 16 бит
Метод сжатия : С потерями
Размер потока : 187 Мбайт (2%)
Заголовок : Mono
Язык : Russian
Default : Нет
Forced : Нет
Меню
00:00:00.000 : :00:00:00.000
00:07:13.099 : :00:07:13.099
00:14:37.627 : :00:14:37.627
00:19:19.825 : :00:19:19.825
00:27:33.694 : :00:27:33.694
00:39:10.348 : :00:39:10.348
00:42:56.574 : :00:42:56.574
00:49:58.245 : :00:49:58.245
00:56:05.737 : :00:56:05.737
01:01:34.983 : :01:01:34.983
01:07:36.261 : :01:07:36.261
01:17:37.695 : :01:17:37.695
01:27:00.424 : :01:27:00.424
01:34:31.499 : :01:34:31.499
01:38:16.182 : :01:38:16.182
01:40:47.416 : :01:40:47.416
01:43:04.512 : :01:43:04.512
01:51:48.911 : :01:51:48.911
02:00:28.388 : :02:00:28.388
02:08:08.890 : :02:08:08.890
Скриншоты:
       
       
Вне форума [Профиль] [ЛС]
Показать сообщения:    
Ответить на тему

Текущее время: Сегодня 06:24

Часовой пояс: GMT + 3



Вы не можете начинать темы
Вы не можете отвечать на сообщения
Вы не можете редактировать свои сообщения
Вы не можете удалять свои сообщения
Вы не можете голосовать в опросах
Вы не можете прикреплять файлы к сообщениям
Вы не можете скачивать файлы