Today is a free download without charge Download

VA - S2S Extravaganza "The Best Of" (2010) [MP3|320 кб/с]<Vocal Jazz>

Reply to topic
 
Author
Message

Omen ®

Longevity: 9 years 2 months

Posts: 181086

Торрент-статистика

Post 27-Jan-2013 17:24

[Quote]

-VA - S2S Extravaganza "The Best Of" (2010)- Год: 2010
Жанр: Vocal Jazz
Продолжительность: 01:05:31
Кодек: MP3
Битрейт: 320 кб/с
Тип битрейта: CBR
Трек лист:
01. Aiza Seguerra - Time After Time [05:09]
02. Olivia Ong - First Of May [03:37]
03. Bevlyn Khoo - Talk To Me [03:17]
04. Sofia - I Believe [04:33]
05. MYMP - Especially For You [03:42]
06. Tay Kewei - Baby Now That I Found You [04:08]
07. Angela - Stay (I Miss You) [03:06]
08. Reymond Sajor - I Don’t Want To Miss A Thing [04:02]
09. Ariea De Rio - I’m Yours [04:16]
10. Princess - You Are Not Alone [05:06]
11. Jess G - I Have Nothing [04:32]
12. Rachelle Ann - If I Were Boy [04:25]
13. Hanjin - I Got You Under My Skin [04:51]
14. Mayo Shono - It’s Too Late [05:33]
15. Aiza Seguerra - Runaway [05:10]

Mediainfo&#58;

Код:
General
Complete name                            : ...\VA - S2S Extravaganza (2010)\01. Aiza Seguerra - Time After Time.mp3
Format                                   : MPEG Audio
File size                                : 11.8 MiB
Duration                                 : 5mn 9s
Overall bit rate mode                    : Constant
Overall bit rate                         : 320 Kbps
Album                                    : S2S Extravaganza (HQCD)
Album/Performer                          : Various Artists
Track name                               : Time After Time
Track name/Position                      : 1
Performer                                : Aiza Seguerra
Encoded by                               : PpN
Genre                                    : Vocal Jazz
Recorded date                            : 2010
Writing library                          : LAME3.99r
Audio
Format                                   : MPEG Audio
Format version                           : Version 1
Format profile                           : Layer 3
Mode                                     : Joint stereo
Duration                                 : 5mn 9s
Bit rate mode                            : Constant
Bit rate                                 : 320 Kbps
Channel(s)                               : 2 channels
Sampling rate                            : 44.1 KHz
Compression mode                         : Lossy
Stream size                              : 11.8 MiB (100%)
Writing library                          : LAME3.99r
Encoding settings                        : -m j -V 4 -q 3 -lowpass 20.5
General
Complete name                            : ...\VA - S2S Extravaganza (2010)\02. Olivia Ong - First Of May.mp3
Format                                   : MPEG Audio
File size                                : 8.29 MiB
Duration                                 : 3mn 37s
Overall bit rate mode                    : Constant
Overall bit rate                         : 320 Kbps
Album                                    : S2S Extravaganza (HQCD)
Album/Performer                          : Various Artists
Track name                               : First Of May
Track name/Position                      : 2
Performer                                : Olivia Ong
Encoded by                               : PpN
Genre                                    : Vocal Jazz
Recorded date                            : 2010
Writing library                          : LAME3.99r
Audio
Format                                   : MPEG Audio
Format version                           : Version 1
Format profile                           : Layer 3
Mode                                     : Joint stereo
Duration                                 : 3mn 37s
Bit rate mode                            : Constant
Bit rate                                 : 320 Kbps
Channel(s)                               : 2 channels
Sampling rate                            : 44.1 KHz
Compression mode                         : Lossy
Stream size                              : 8.29 MiB (100%)
Writing library                          : LAME3.99r
Encoding settings                        : -m j -V 4 -q 3 -lowpass 20.5
General
Complete name                            : ...\VA - S2S Extravaganza (2010)\03. Bevlyn Khoo - Talk To Me.mp3
Format                                   : MPEG Audio
File size                                : 7.53 MiB
Duration                                 : 3mn 17s
Overall bit rate mode                    : Constant
Overall bit rate                         : 320 Kbps
Album                                    : S2S Extravaganza (HQCD)
Album/Performer                          : Various Artists
Track name                               : Talk To Me
Track name/Position                      : 3
Performer                                : Bevlyn Khoo
Encoded by                               : PpN
Genre                                    : Vocal Jazz
Recorded date                            : 2010
Writing library                          : LAME3.99r
Audio
Format                                   : MPEG Audio
Format version                           : Version 1
Format profile                           : Layer 3
Mode                                     : Joint stereo
Duration                                 : 3mn 17s
Bit rate mode                            : Constant
Bit rate                                 : 320 Kbps
Channel(s)                               : 2 channels
Sampling rate                            : 44.1 KHz
Compression mode                         : Lossy
Stream size                              : 7.53 MiB (100%)
Writing library                          : LAME3.99r
Encoding settings                        : -m j -V 4 -q 3 -lowpass 20.5
General
Complete name                            : ...\VA - S2S Extravaganza (2010)\04. Sofia - I Believe.mp3
Format                                   : MPEG Audio
File size                                : 10.4 MiB
Duration                                 : 4mn 33s
Overall bit rate mode                    : Constant
Overall bit rate                         : 320 Kbps
Album                                    : S2S Extravaganza (HQCD)
Album/Performer                          : Various Artists
Track name                               : I Believe
Track name/Position                      : 4
Performer                                : Sofia
Encoded by                               : PpN
Genre                                    : Vocal Jazz
Recorded date                            : 2010
Writing library                          : LAME3.99r
Audio
Format                                   : MPEG Audio
Format version                           : Version 1
Format profile                           : Layer 3
Mode                                     : Joint stereo
Duration                                 : 4mn 33s
Bit rate mode                            : Constant
Bit rate                                 : 320 Kbps
Channel(s)                               : 2 channels
Sampling rate                            : 44.1 KHz
Compression mode                         : Lossy
Stream size                              : 10.4 MiB (100%)
Writing library                          : LAME3.99r
Encoding settings                        : -m j -V 4 -q 3 -lowpass 20.5
General
Complete name                            : ...\VA - S2S Extravaganza (2010)\05. MYMP - Especially For You.mp3
Format                                   : MPEG Audio
File size                                : 8.48 MiB
Duration                                 : 3mn 42s
Overall bit rate mode                    : Constant
Overall bit rate                         : 320 Kbps
Album                                    : S2S Extravaganza (HQCD)
Album/Performer                          : Various Artists
Track name                               : Especially For You
Track name/Position                      : 5
Performer                                : MYMP
Encoded by                               : PpN
Genre                                    : Vocal Jazz
Recorded date                            : 2010
Writing library                          : LAME3.99r
Audio
Format                                   : MPEG Audio
Format version                           : Version 1
Format profile                           : Layer 3
Mode                                     : Joint stereo
Mode extension                           : MS Stereo
Duration                                 : 3mn 42s
Bit rate mode                            : Constant
Bit rate                                 : 320 Kbps
Channel(s)                               : 2 channels
Sampling rate                            : 44.1 KHz
Compression mode                         : Lossy
Stream size                              : 8.48 MiB (100%)
Writing library                          : LAME3.99r
Encoding settings                        : -m j -V 4 -q 3 -lowpass 20.5
General
Complete name                            : ...\VA - S2S Extravaganza (2010)\06. Tay Kewei - Baby Now That I Found You.mp3
Format                                   : MPEG Audio
File size                                : 9.46 MiB
Duration                                 : 4mn 7s
Overall bit rate mode                    : Constant
Overall bit rate                         : 320 Kbps
Album                                    : S2S Extravaganza (HQCD)
Album/Performer                          : Various Artists
Track name                               : Baby Now That I Found You
Track name/Position                      : 6
Performer                                : Tay Kewei
Encoded by                               : PpN
Genre                                    : Vocal Jazz
Recorded date                            : 2010
Writing library                          : LAME3.99r
Audio
Format                                   : MPEG Audio
Format version                           : Version 1
Format profile                           : Layer 3
Mode                                     : Joint stereo
Duration                                 : 4mn 8s
Bit rate mode                            : Constant
Bit rate                                 : 320 Kbps
Channel(s)                               : 2 channels
Sampling rate                            : 44.1 KHz
Compression mode                         : Lossy
Stream size                              : 9.46 MiB (100%)
Writing library                          : LAME3.99r
Encoding settings                        : -m j -V 4 -q 3 -lowpass 20.5
General
Complete name                            : ...\VA - S2S Extravaganza (2010)\07. Angela - Stay (I Miss You).mp3
Format                                   : MPEG Audio
File size                                : 7.10 MiB
Duration                                 : 3mn 5s
Overall bit rate mode                    : Constant
Overall bit rate                         : 320 Kbps
Album                                    : S2S Extravaganza (HQCD)
Album/Performer                          : Various Artists
Track name                               : Stay (I Miss You)
Track name/Position                      : 7
Performer                                : Angela
Encoded by                               : PpN
Genre                                    : Vocal Jazz
Recorded date                            : 2010
Writing library                          : LAME3.99r
Audio
Format                                   : MPEG Audio
Format version                           : Version 1
Format profile                           : Layer 3
Mode                                     : Joint stereo
Duration                                 : 3mn 6s
Bit rate mode                            : Constant
Bit rate                                 : 320 Kbps
Channel(s)                               : 2 channels
Sampling rate                            : 44.1 KHz
Compression mode                         : Lossy
Stream size                              : 7.09 MiB (100%)
Writing library                          : LAME3.99r
Encoding settings                        : -m j -V 4 -q 3 -lowpass 20.5
General
Complete name                            : ...\VA - S2S Extravaganza (2010)\08. Reymond Sajor - I Don’t Want To Miss A Thing.mp3
Format                                   : MPEG Audio
File size                                : 9.23 MiB
Duration                                 : 4mn 1s
Overall bit rate mode                    : Constant
Overall bit rate                         : 320 Kbps
Album                                    : S2S Extravaganza (HQCD)
Album/Performer                          : Various Artists
Track name                               : I Don’t Want To Miss A Thing
Track name/Position                      : 8
Performer                                : Reymond Sajor
Encoded by                               : PpN
Genre                                    : Vocal Jazz
Recorded date                            : 2010
Writing library                          : LAME3.99r
Audio
Format                                   : MPEG Audio
Format version                           : Version 1
Format profile                           : Layer 3
Mode                                     : Joint stereo
Mode extension                           : MS Stereo
Duration                                 : 4mn 1s
Bit rate mode                            : Constant
Bit rate                                 : 320 Kbps
Channel(s)                               : 2 channels
Sampling rate                            : 44.1 KHz
Compression mode                         : Lossy
Stream size                              : 9.22 MiB (100%)
Writing library                          : LAME3.99r
Encoding settings                        : -m j -V 4 -q 3 -lowpass 20.5
General
Complete name                            : ...\VA - S2S Extravaganza (2010)\09. Ariea De Rio - I’m Yours.mp3
Format                                   : MPEG Audio
File size                                : 9.77 MiB
Duration                                 : 4mn 16s
Overall bit rate mode                    : Constant
Overall bit rate                         : 320 Kbps
Album                                    : S2S Extravaganza (HQCD)
Album/Performer                          : Various Artists
Track name                               : I’m Yours
Track name/Position                      : 9
Performer                                : Ariea De Rio
Encoded by                               : PpN
Genre                                    : Vocal Jazz
Recorded date                            : 2010
Writing library                          : LAME3.99r
Audio
Format                                   : MPEG Audio
Format version                           : Version 1
Format profile                           : Layer 3
Mode                                     : Joint stereo
Duration                                 : 4mn 16s
Bit rate mode                            : Constant
Bit rate                                 : 320 Kbps
Channel(s)                               : 2 channels
Sampling rate                            : 44.1 KHz
Compression mode                         : Lossy
Stream size                              : 9.77 MiB (100%)
Writing library                          : LAME3.99r
Encoding settings                        : -m j -V 4 -q 3 -lowpass 20.5
General
Complete name                            : ...\VA - S2S Extravaganza (2010)\10. Princess - You Are Not Alone.mp3
Format                                   : MPEG Audio
File size                                : 11.7 MiB
Duration                                 : 5mn 6s
Overall bit rate mode                    : Constant
Overall bit rate                         : 320 Kbps
Album                                    : S2S Extravaganza (HQCD)
Album/Performer                          : Various Artists
Track name                               : You Are Not Alone
Track name/Position                      : 10
Performer                                : Princess
Encoded by                               : PpN
Genre                                    : Vocal Jazz
Recorded date                            : 2010
Writing library                          : LAME3.99r
Audio
Format                                   : MPEG Audio
Format version                           : Version 1
Format profile                           : Layer 3
Mode                                     : Joint stereo
Duration                                 : 5mn 6s
Bit rate mode                            : Constant
Bit rate                                 : 320 Kbps
Channel(s)                               : 2 channels
Sampling rate                            : 44.1 KHz
Compression mode                         : Lossy
Stream size                              : 11.7 MiB (100%)
Writing library                          : LAME3.99r
Encoding settings                        : -m j -V 4 -q 3 -lowpass 20.5
General
Complete name                            : ...\VA - S2S Extravaganza (2010)\11. Jess G - I Have Nothing.mp3
Format                                   : MPEG Audio
File size                                : 10.4 MiB
Duration                                 : 4mn 32s
Overall bit rate mode                    : Constant
Overall bit rate                         : 320 Kbps
Album                                    : S2S Extravaganza (HQCD)
Album/Performer                          : Various Artists
Track name                               : I Have Nothing
Track name/Position                      : 11
Performer                                : Jess G
Encoded by                               : PpN
Genre                                    : Vocal Jazz
Recorded date                            : 2010
Writing library                          : LAME3.99r
Audio
Format                                   : MPEG Audio
Format version                           : Version 1
Format profile                           : Layer 3
Mode                                     : Joint stereo
Mode extension                           : MS Stereo
Duration                                 : 4mn 32s
Bit rate mode                            : Constant
Bit rate                                 : 320 Kbps
Channel(s)                               : 2 channels
Sampling rate                            : 44.1 KHz
Compression mode                         : Lossy
Stream size                              : 10.4 MiB (100%)
Writing library                          : LAME3.99r
Encoding settings                        : -m j -V 4 -q 3 -lowpass 20.5
General
Complete name                            : ...\VA - S2S Extravaganza (2010)\12. Rachelle Ann - If I Were Boy.mp3
Format                                   : MPEG Audio
File size                                : 10.1 MiB
Duration                                 : 4mn 25s
Overall bit rate mode                    : Constant
Overall bit rate                         : 320 Kbps
Album                                    : S2S Extravaganza (HQCD)
Album/Performer                          : Various Artists
Track name                               : If I Were Boy
Track name/Position                      : 12
Performer                                : Rachelle Ann
Encoded by                               : PpN
Genre                                    : Vocal Jazz
Recorded date                            : 2010
Writing library                          : LAME3.99r
Audio
Format                                   : MPEG Audio
Format version                           : Version 1
Format profile                           : Layer 3
Mode                                     : Joint stereo
Duration                                 : 4mn 25s
Bit rate mode                            : Constant
Bit rate                                 : 320 Kbps
Channel(s)                               : 2 channels
Sampling rate                            : 44.1 KHz
Compression mode                         : Lossy
Stream size                              : 10.1 MiB (100%)
Writing library                          : LAME3.99r
Encoding settings                        : -m j -V 4 -q 3 -lowpass 20.5
General
Complete name                            : ...\VA - S2S Extravaganza (2010)\13. Hanjin - I Got You Under My Skin.mp3
Format                                   : MPEG Audio
File size                                : 11.1 MiB
Duration                                 : 4mn 51s
Overall bit rate mode                    : Constant
Overall bit rate                         : 320 Kbps
Album                                    : S2S Extravaganza (HQCD)
Album/Performer                          : Various Artists
Track name                               : I Got You Under My Skin
Track name/Position                      : 13
Performer                                : Hanjin
Encoded by                               : PpN
Genre                                    : Vocal Jazz
Recorded date                            : 2010
Writing library                          : LAME3.99r
Audio
Format                                   : MPEG Audio
Format version                           : Version 1
Format profile                           : Layer 3
Mode                                     : Joint stereo
Duration                                 : 4mn 51s
Bit rate mode                            : Constant
Bit rate                                 : 320 Kbps
Channel(s)                               : 2 channels
Sampling rate                            : 44.1 KHz
Compression mode                         : Lossy
Stream size                              : 11.1 MiB (100%)
Writing library                          : LAME3.99r
Encoding settings                        : -m j -V 4 -q 3 -lowpass 20.5
General
Complete name                            : ...\VA - S2S Extravaganza (2010)\14. Mayo Shono - It’s Too Late.mp3
Format                                   : MPEG Audio
File size                                : 12.7 MiB
Duration                                 : 5mn 33s
Overall bit rate mode                    : Constant
Overall bit rate                         : 320 Kbps
Album                                    : S2S Extravaganza (HQCD)
Album/Performer                          : Various Artists
Track name                               : It’s Too Late
Track name/Position                      : 14
Performer                                : Mayo Shono
Encoded by                               : PpN
Genre                                    : Vocal Jazz
Recorded date                            : 2010
Writing library                          : LAME3.99r
Audio
Format                                   : MPEG Audio
Format version                           : Version 1
Format profile                           : Layer 3
Mode                                     : Joint stereo
Mode extension                           : MS Stereo
Duration                                 : 5mn 33s
Bit rate mode                            : Constant
Bit rate                                 : 320 Kbps
Channel(s)                               : 2 channels
Sampling rate                            : 44.1 KHz
Compression mode                         : Lossy
Stream size                              : 12.7 MiB (100%)
Writing library                          : LAME3.99r
Encoding settings                        : -m j -V 4 -q 3 -lowpass 20.5
General
Complete name                            : ...\VA - S2S Extravaganza (2010)\15. Aiza  Seguerra - Runaway.mp3
Format                                   : MPEG Audio
File size                                : 11.9 MiB
Duration                                 : 5mn 10s
Overall bit rate mode                    : Constant
Overall bit rate                         : 320 Kbps
Album                                    : S2S Extravaganza (HQCD)
Album/Performer                          : Various Artists
Track name                               : Runaway
Track name/Position                      : 15
Performer                                : Aiza  Seguerra
Encoded by                               : PpN
Genre                                    : Vocal Jazz
Recorded date                            : 2010
Writing library                          : LAME3.99r
Audio
Format                                   : MPEG Audio
Format version                           : Version 1
Format profile                           : Layer 3
Mode                                     : Joint stereo
Duration                                 : 5mn 10s
Bit rate mode                            : Constant
Bit rate                                 : 320 Kbps
Channel(s)                               : 2 channels
Sampling rate                            : 44.1 KHz
Compression mode                         : Lossy
Stream size                              : 11.9 MiB (100%)
Writing library                          : LAME3.99r
Encoding settings                        : -m j -V 4 -q 3 -lowpass 20.5
Время раздачи: 24/7
Other forum [Profile] [PM]
Display posts from previous:    
Reply to topic

The time now is: Today 06:35

All times are GMT + 3 Hours



You cannot post new topics in this forum
You cannot reply to topics in this forum
You cannot edit your posts in this forum
You cannot delete your posts in this forum
You cannot vote in polls in this forum
You cannot attach files in this forum
You cannot download files in this forum