Today is a free download without charge Download

Андрейка / Части: 1-2 из 2 (Виктория Держицкая) [2012, мелодрама, HDTVRip 720p]

Reply to topic
 
Author
Message

Omen ®

Longevity: 8 years 11 months

Posts: 181086

Торрент-статистика

Post 27-Jan-2013 16:04

[Quote]

Андрейка -Год выпуска: 2012
Производство: Россия, кинокомпания "ПАТРИОТ"
Жанр: мелодрама
Продолжительность: 00:43:00 серия
Режиссёр: Виктория Держицкая-В ролях: Любовь Баханкова, Никита Тезин, Дмитрий Ратомский, Никита Зверев, Людмила Гаврилова, Мария Беккер, Яна Сексте, Станислав Эрдлей, Наталья Ноздрина, Екатерина Копанова, Максим Сапрыкин, Наталья Смирнова, Олег Кленов, Анастасия Новикова, Валерия Богук, Елизавета Кузнецова, Евгений Смирнов, Ива Солоницына, Регина Полякова, Иван Гарьковец, Галина Стаханова, Юлия Абрамова-Описание: Когда Маша впервые увидела у ограды детского дома худого невысокого подростка с умными глазами, она еще не знала, что этот мальчик - ее судьба. Она однажды вступилась за него, и с тех пор Маша и Андрейка - как она ласково называла парнишку-стали друзьями. Он влюбился в нее с первого взгляда, а она ласково подшучивала над ним, и ждала своего принца… Однако сказка обернулась кошмаром. Встреченный ею "мажор" Дима оказался насильником и негодяем. А спустя несколько недель после того, как Дима надругался над ней, Маша поняла, что беременна…От самоубийства ее спас верный Андрейка. Узнал все и решил отомстить подлецу. В драке он случайно нанес Диме смертельный удар. Суд приговорил никому не нужного детдомовца к шести годам колонии… Маша, оплакивая свою и Андрейкину судьбы, уехала к тетке в Москву-Доп.информация:
Спасибо mydimka за предоставленный исходник!
Любая реклама ОТСУТСТВУЕТ!-Все раздачи сериала-Сэмпл-Качество: HDTVRip 720p
Формат: MKV
Видео кодек: H.264
Аудио кодек: AC3
Видео: 1280x720, 25 fps, x264 AVC ~5350 kbps avg, 0.232 bit/pixel
Аудио: 48 kHz, Audio Coding 3, 2 ch, ~192.00 kbps avg

MI

ОбщееУникальный идентификатор : 206292123373398793775909148216479735125 (0x9B326AF2F2E8C5A7A183ED4DDED05D55)Полное имя : D:\Раздачи\Андрейка 2012_HDTVRip(720p)\Андрейка 1 часть из 2 2012_HDTVRip(720p).mkvФормат : MatroskaВерсия формата : Version 2Размер файла : 3,48 ГбайтПродолжительность : 1 ч. 30 м.Общий поток : 5518 Кбит/секДата кодирования : UTC 2013-01-27 04:35:30Программа кодирования : mkvmerge v4.9.1 ('Ich will') сборка от Jul 11 2011 23:53:15Библиотека кодирования : libebml v1.2.1 + libmatroska v1.1.1
ВидеоИдентификатор : 1Формат : AVCФормат/Информация : Advanced Video CodecПрофиль формата : [email protected]Параметр CABAC формата : ДаПараметр ReFrames формата : 5 кадровИдентификатор кодека : V_MPEG4/ISO/AVCПродолжительность : 1 ч. 30 м.Битрейт : 5350 Кбит/секШирина : 1280 пикселейВысота : 720 пикселейСоотношение сторон : 16:9Режим частоты кадров : ПостоянныйЧастота кадров : 25,000 кадров/секЦветовое пространство : YUVСубдискретизация насыщенности : 4:2:0Битовая глубина : 8 битТип развёртки : ПрогрессивнаяБит/(Пиксели*Кадры) : 0.232Размер потока : 3,29 Гбайт (95%)Библиотека кодирования : x264 core 116 r2044 392e762Настройки программы : cabac=1 / ref=5 / deblock=1:-1:-1 / analyse=0x3:0x113 / me=umh / subme=10 / psy=1 / psy_rd=0.00:0.10 / mixed_ref=1 / me_range=32 / chroma_me=1 / trellis=2 / 8x8dct=1 / cqm=0 / deadzone=21,11 / fast_pskip=0 / chroma_qp_offset=-1 / threads=12 / sliced_threads=0 / nr=0 / decimate=1 / interlaced=0 / bluray_compat=0 / constrained_intra=0 / bframes=5 / b_pyramid=2 / b_adapt=1 / b_bias=0 / direct=1 / weightb=1 / open_gop=0 / weightp=2 / keyint=250 / keyint_min=25 / scenecut=40 / intra_refresh=0 / rc_lookahead=40 / rc=abr / mbtree=1 / bitrate=5350 / ratetol=1.0 / qcomp=0.60 / qpmin=0 / qpmax=69 / qpstep=4 / ip_ratio=1.40 / aq=1:1.00Default : ДаForced : Нет
АудиоИдентификатор : 2Формат : AC-3Формат/Информация : Audio Coding 3Расширение режима : CM (complete main)Параметр Endianness формата : BigИдентификатор кодека : A_AC3Продолжительность : 1 ч. 30 м.Вид битрейта : ПостоянныйБитрейт : 192 Кбит/секКаналы : 2 каналаРасположение каналов : Front: L RЧастота : 48,0 КГцБитовая глубина : 16 битМетод сжатия : С потерямиРазмер потока : 124 Мбайт (3%)Default : ДаForced : Нет

Скриншоты

Other forum [Profile] [PM]
Similar theme
Forum Topic Author Torrent Replies Last Post
./templates/default/images/folder_dl.gif Архив Андрей Васильев | Собрание сочинений [23 книги] (2013-2016) [FB2] moralis
1 | 0

0 | 998

0

2016-09-11 12:41
moralis Latest
Display posts from previous:    
Reply to topic

The time now is: Today 09:19

All times are GMT + 3 Hours



You cannot post new topics in this forum
You cannot reply to topics in this forum
You cannot edit your posts in this forum
You cannot delete your posts in this forum
You cannot vote in polls in this forum
You cannot attach files in this forum
You cannot download files in this forum