Today is a free download without charge Download

1942 / Сезон: 2 Серии: 1-16 из 16 (Валерий Шалыга) [2011, Россия, военный, 2xDVD9] R5 Original Rus

Reply to topic
 
Author
Message

Omen ®

Longevity: 8 years 11 months

Posts: 181086

Торрент-статистика

Post 27-Jan-2013 16:04

[Quote]

-1942 -Страна: Россия
Студия: «Про-ТВ»
Жанр: военный
Год выпуска: 2011
Продолжительность: 688 мин.
Перевод: Оригинал [Лицензия]
Cубтитры: нет
Оригинальная аудиодорожка: русский-Режиссер: Валерий Шалыга-В ролях: Владимир Башкиров, Александр Пашков, Юрий Яковлев, Дарья Баранова, Йоханес Габриель, Александр Данильченко, Сергей Деревянко, Кирилл Жандаров, Игорь Петрусенко, Вячеслав Соломка, Олег Примогенов, Максим Чумак, Игорь Денисов, Александр Кобзарь, Валерий Сковронский, Сергей Малюга, Заза Чантурия, Ольга Олексий, Валентина Лосовская, Владимир Носик, Максим Максимюк, Сергей Романюк, Мила Сивацкая, Александр Гиренок-Описание: Ранняя весна 1942 года. В лесу пережил зиму партизанский отряд Григория. Их осталось очень мало: сам Григорий, Муха, несколько мужиков из деревни, несколько красноармейцев. Мало мужчин, но много женщин, детей и стариков. Они не могут вернуться в деревню. В округе свирепствуют каратели — эсесовцы и латышские полицаи. Поэтому выжить они могут только в лесу. Григорий живет с Дашей, а Алена — в одиночестве. Она замкнулась в себе, ведь в жизни у нее сломано все — муж оказался с другой, а тот, кого полюбила — оказался предателем…-Бонусы: нет- -Все раздачи сериала-Качество: 2xDVD9 R5
Формат: DVD-Video
Видео кодек: MPEG2
Аудио кодек: AC3
Видео: PAL 4:3 (720x576(4.032)) MPEG Video, 25,000 кадр/сек, 6000 Кбит/сек
Аудио: Russian (Dolby AC3, 6 ch) 448 Кбит/сек, 48,0 КГц--

DVDInfo DVD1

Title: DVD1
Size: 7.44 Gb ( 7 805 206,00 KBytes ) - DVD-9
Enabled regions: 1, 2, 3, 4, 5, 6, 7, 8
VTS_01 :
Play Length: 05:52:20
Video: PAL 4:3 (720x576) VBR
Audio:
English (Dolby AC3, 6 ch)
* Menus Information *
VIDEO_TS Menu
Video:
PAL 4:3 (720x576) VBR
Audio:
Not specified (Dolby AC3, 2 ch)
English Language Unit :
Title Menu
VTS_01 Menu
Video:
PAL 4:3 (720x576) VBR
Audio:
Not specified (Dolby AC3, 2 ch)
English Language Unit :
Root Menu

DVDInfo DVD2

Title:
Size: 7.45 Gb ( 7 811 268,00 KBytes ) - DVD-9
Enabled regions: 1, 2, 3, 4, 5, 6, 7, 8
VTS_01 :
Play Length: 05:52:33
Video: PAL 4:3 (720x576) VBR
Audio:
English (Dolby AC3, 6 ch)
* Menus Information *
VIDEO_TS Menu
Video:
PAL 4:3 (720x576) VBR
Audio:
Not specified (Dolby AC3, 2 ch)
English Language Unit :
Title Menu
VTS_01 Menu
Video:
PAL 4:3 (720x576) VBR
Audio:
Not specified (Dolby AC3, 2 ch)
English Language Unit :
Root Menu

MediaInfo

Общее
Полное имя : J:\Новинки 2012\1942.2011.2xDVD9\DVD1\VIDEO_TS\VTS_01_2.VOB
Формат : MPEG-PS
Размер файла : 1024 Мбайт
Продолжительность : 3 м. 19 с.
Режим общего битрейта : Переменный
Общий поток : 43,1 Мбит/сек
Видео
Идентификатор : 224 (0xE0)
Формат : MPEG Video
Версия формата : Version 2
Профиль формата : [email protected]
Параметр BVOP формата : Да
Параметр матрицы формата : Выборочная
Параметр GOP формата : Variable
Продолжительность : 3 м. 19 с.
Вид битрейта : Переменный
Битрейт : 41,8 Мбит/сек
Максимальный битрейт : 6000 Кбит/сек
Ширина : 720 пикселей
Высота : 576 пикселей
Соотношение сторон : 4:3
Частота кадров : 25,000 кадров/сек
Стандарт вещания : PAL
Цветовое пространство : YUV
Субдискретизация насыщенности : 4:2:0
Битовая глубина : 8 бит
Тип развёртки : Прогрессивная
Метод сжатия : С потерями
Бит/(Пиксели*Кадры) : 4.032
Размер потока : 993 Мбайт (97%)
Аудио
Идентификатор : 189 (0xBD)-128 (0x80)
Формат : AC-3
Формат/Информация : Audio Coding 3
Расширение режима : CM (complete main)
Параметр Endianness формата : Big
Режим смешивания : DVD-Video
Продолжительность : 3 м. 19 с.
Вид битрейта : Постоянный
Битрейт : 448 Кбит/сек
Каналы : 6 каналов
Расположение каналов : Front: L C R, Side: L R, LFE
Частота : 48,0 КГц
Битовая глубина : 16 бит
Метод сжатия : С потерями
Задержка видео : -248 мс.
Размер потока : 10,6 Мбайт (1%)

Скриншоты меню

Скриншоты сериала


-
-Раздача от группы:
Other forum [Profile] [PM]
Display posts from previous:    
Reply to topic

The time now is: Today 11:34

All times are GMT + 3 Hours



You cannot post new topics in this forum
You cannot reply to topics in this forum
You cannot edit your posts in this forum
You cannot delete your posts in this forum
You cannot vote in polls in this forum
You cannot attach files in this forum
You cannot download files in this forum