Today is a free download without charge Download

Андрейка / Сезон: Части: 01-02 из 02 (Виктория Держицкая) [2012, Мелодрама, HDTV, FULL HD 1080i]

Reply to topic
 
Author
Message

Omen ®

Longevity: 8 years 11 months

Posts: 181086

Торрент-статистика

Post 27-Jan-2013 16:04

[Quote]

Андрейка
Год выпуска: 2012
Производство: Кинокомпания "Патриот"
Жанр: Мелодрама
Продолжительность: ~ 00:45:00 / серия
Субтитры: Отсутсвтуют
Режиссёр: Виктория Держицкая
В ролях: Никита Тезин, Любовь Баханкова, Максим Сапрыкин, Наталья Смирнова, Олег Кленов, Анастасия Новикова, Никита Зверев и другие.
Описание: Когда Маша впервые увидела у ограды детского дома худого невысокого подростка с умными глазами, она еще не знала, что этот мальчик - ее судьба. Она однажды вступилась за него, и с тех пор Маша и Андрейка - как она ласково называла парнишку-стали друзьями. Он влюбился в нее с первого взгляда, а она ласково подшучивала над ним, и ждала своего принца… Однако сказка обернулась кошмаром. Встреченный ею "мажор" Дима оказался насильником и негодяем. А спустя несколько недель после того, как Дима надругался над ней, Маша поняла, что беременна…От самоубийства ее спас верный Андрейка. Узнал все и решил отомстить подлецу. В драке он случайно нанес Диме смертельный удар. Суд приговорил никому не нужного детдомовца к шести годам колонии… Маша, оплакивая свою и Андрейкину судьбы, уехала к тетке в Москву
Сэмпл: http://multi-up.com/822663
Доп. информация: Релиз -

Рип чистый. Без посторонних надписей. Выкладывается как есть.
Качество: HDTV 1080i
Контейнер: TS
Видео кодек: AVC
Аудио кодек: AC3
Видео: 1920x1080 (16:9) 25.000 fps 7 655 Kbps, 0.148 bit/pixel
Аудио: MPEG Audio 48000Hz stereo 192 Кбит/сек

Скриншоты


MI

GeneralID : 1 (0x1)Complete name : H:\ВЫКЛАДКА\HDTV\Сериалы\Андрейка (2012, Сериал, Мелодрама, HDTV) (MYDIMKA)\01 часть.tsFormat : MPEG-TSFile size : 5.32 GiBDuration : 1h 30mnOverall bit rate mode : VariableOverall bit rate : 8 434 Kbps
VideoID : 2911 (0xB5F)Menu ID : 1 (0x1)Format : AVCFormat/Info : Advanced Video CodecFormat profile : [email protected] settings, CABAC : YesFormat settings, ReFrames : 4 framesCodec ID : 27Duration : 1h 30mnBit rate : 7 823 KbpsWidth : 1 920 pixelsHeight : 1 080 pixelsDisplay aspect ratio : 16:9Frame rate : 25.000 fpsColor space : YUVChroma subsampling : 4:2:0Bit depth : 8 bitsScan type : MBAFFBits/(Pixel*Frame) : 0.151Stream size : 4.94 GiB (93%)
AudioID : 2912 (0xB60)Menu ID : 1 (0x1)Format : MPEG AudioFormat version : Version 1Format profile : Layer 2Codec ID : 3Duration : 1h 30mnBit rate mode : ConstantBit rate : 192 KbpsChannel(s) : 2 channelsSampling rate : 48.0 KHzCompression mode : LossyStream size : 124 MiB (2%)Language : Russian
Other forum [Profile] [PM]
Display posts from previous:    
Reply to topic

The time now is: Today 13:50

All times are GMT + 3 Hours



You cannot post new topics in this forum
You cannot reply to topics in this forum
You cannot edit your posts in this forum
You cannot delete your posts in this forum
You cannot vote in polls in this forum
You cannot attach files in this forum
You cannot download files in this forum