Today is a free download without charge Download

Метод Фрейда [12 серий из 12] (2012) SATRip

Reply to topic
 
Author
Message

Omen ®

Longevity: 8 years 11 months

Posts: 181086

Торрент-статистика

Post 27-Jan-2013 09:43

[Quote]

-Метод Фрейда [12 серий из 12] (2012) SATRip- Русское название: Метод Фрейда
Выпущено: Россия
Производство: "Star media"
Год выпуска: 2012
Жанр: Детектив
Перевод: Не требуется (Русский)

Режиссер: Михаил Вайнберг
Актеры: Иван Охлобыстин, Наталия Антонова, Елена Николаева, Павел Прилучный, Артур Ваха, Алексей Гришин, Александр Кузнецов, Наталья Рычкова, Алла Подчуфарова, Маргарита Быстрякова, Яна Чигир, Анна Каменкова, Денис Старков, Азамат Нигманов, Александр Воробьёв, Вячеслав Яковлев, Виктор Маркин, Юрий Борисов
Описание фильма:
Психология очень тонкая и запутанная наука, с помощью психологических тестов можно узнать очень многое о человеке, даже не зная его в лицо. Для помощи в расследовании сложных и запутанных преступлений, в прокурорский следственный отдел, был направлен Роман Фрейдин, профи в своём деле, а именно в психологии и игре в покер. В своё время Роман объездил пол мира, он общался с разными людьми - психологами и шулерами, колдунами и предсказателями, квалифицированными учёнными и профессиональными игроками в покер...
В своих расследованиях Фрейдин применяет весь опыт полученный за долгие годы, он прислушивается к интуиции, разрабатывает преступления научными методами, создаёт психологический портрет преступника, но самый главный метод Романа - "Метод Фрейда", который заключается в провокации подозреваемых. Так же он общается и с своими новыми коллегами, порой выводя их на бурные эмоции и неадекватные поступки. Но всё же коллеги понимают, что с ними работает профессионал своего дела и прислушиваются к советам Романа, ведь несмотря на неадекватные методы психологу удаётся раскрывать самые запутанные, сложные, порой просто необъяснимые преступления.
Продолжительность: 12 х ~ 00:50:23 серия
Качество видео: SATRip
Видеокодек: DivX 5
Битрейт видео: ~1597 Kbit/s
Размер кадра: 704 х 400
Аудиокодек: MP3, 2.0
Битрейт аудио: 128 Kbit/s

MediaInfo

Общее
Полное имя : D:\Торренты\ФИЛЬМЫ торента\Метод Фрейда.2012.SATRip\Метод Фрейда.01.avi
Формат : AVI
Формат/Информация : Audio Video Interleave
Размер файла : 627 Мбайт
Продолжительность : 50 м.
Общий поток : 1738 Кбит/сек
Библиотека кодирования : Boilsoft AVI tool build 1/release
Видео
Идентификатор : 0
Формат : MPEG-4 Visual
Профиль формата : [email protected]
Параметр BVOP формата : Нет
Параметр QPel формата : Нет
Параметр GMC формата : Без точки перехода
Параметр матрицы формата : Default (H.263)
Идентификатор кодека : DX50
Идентификатор кодека/Подсказка : DivX 5
Продолжительность : 50 м.
Битрейт : 1597 Кбит/сек
Ширина : 704 пикс.
Высота : 400 пикс.
Соотношение сторон : 16:9
Частота кадров : 25,000 кадр/сек
Цветовое пространство : YUV
Подвыборка цветности : 4:2:0
Битовая глубина : 8 бит
Тип развёртки : Прогрессивная
Метод сжатия : С потерями
Бит/(Пиксели*Кадры) : 0.227
Размер потока : 576 Мбайт (92%)
Библиотека кодирования : XviD 1.2.1 (UTC 2008-12-04)
Аудио
Идентификатор : 1
Формат : MPEG Audio
Версия формата : Version 1
Профиль формата : Layer 3
Режим : Joint stereo
Расширение режима : MS Stereo
Идентификатор кодека : 55
Идентификатор кодека/Подсказка : MP3
Продолжительность : 50 м.
Вид битрейта : Постоянный
Битрейт : 128 Кбит/сек
Каналы : 2 канала
Частота : 48,0 КГц
Метод сжатия : С потерями
Размер потока : 46,1 Мбайт (7%)
Выравнивание : Соединение по промежуткам
Продолжительность промежутка : 24 мс. (0,60 видеокадр)
Время предзагрузки промежутка : 504 ms
Библиотека кодирования : LAME3.98.2
Скриншоты:
           
Время раздачи: 24/7 по возможности
Other forum [Profile] [PM]
Similar theme
Forum Topic Author Torrent Replies Last Post
./templates/default/images/folder_dl.gif Медицина и Здоровье Валентин Дикуль | Полная энциклопедия спины и суставов: традиционные и инновационные методы лечения (2013) [PDF] moralis
1 | 0

0 | 1125

17

2016-01-11 21:55
moralis Latest
Display posts from previous:    
Reply to topic

The time now is: Today 12:22

All times are GMT + 3 Hours



You cannot post new topics in this forum
You cannot reply to topics in this forum
You cannot edit your posts in this forum
You cannot delete your posts in this forum
You cannot vote in polls in this forum
You cannot attach files in this forum
You cannot download files in this forum