Today is a free download without charge Download

Дневник доктора Зайцевой - 2 (серии 1-24 из 24) (2012) SATRip

Reply to topic
 
Author
Message

Omen ®

Longevity: 8 years 11 months

Posts: 181086

Торрент-статистика

Post 27-Jan-2013 09:43

[Quote]

- Дневник доктора Зайцевой - 2 (2012) SATRip- Режиссер / Телекомпания: СТС
Русское название: Дневник доктора Зайцевой - 2
Год выпуска: 2012
Жанр: Мелодрама
Выпущено: Россия, "Спутник Восток Продакшн" по заказу СТС
Описание:
В начале нового, второго сезона у Саши наконец-то есть то, о чем она мечтала: серьезные отношения с Максом Майоровым и с таким трудом сброшенные лишние килограммы! И вот тут-то, когда, казалось бы, должно было наступить то самое «они жили долго и счастливо», доктор Зайцева сталкивается с новыми препятствиями! Сможет ли Зайцева их одолеть или они станут для нее непреодолимыми? И не захочет ли Зайцева поменять «проблемного» Майорова на какого-нибудь другого мужчину, не менее обаятельного и привлекательного? Тем более что в их больнице появляется новый доктор, о-очень симпатичный…
Режиссёр: Владислав Николаев
В ролях: Яна Крайнова, Илья Любимов, Павел Трубинер, Максим Радугин, Константин Соловьёв, Максим Виторган, Александр Феклистов, Елена Сафонова, Алексей Демидов, Людмила Светлова (II), Алика Смехова, Анна Халилулина, Григорий Скряпкин, Томас Моцкус, Алена Лаптева, Олеся Фаттахова, Алла Подчуфарова, Анвар Халилулаев, Алексей Лунёв, Иван Шмаков, Виктория Таранец, Владимир Воробьёв (II), Максим Дромашко, Макс Бирюков, Роман Синицын, Татьяна Рыбинец, Роман Чора, Илья Шляга, Александр Алёшкин, Дмитрий Калистратов, Сергей Белов (II), Дарья Слонская (Юрченко), Виктор Полторацкий
Продолжительность: Каждая серия ~ 00:45:00
Видеокодек: XVID
Битрейт видео: ~1556 kb/s
Размер кадра: 720 x 400
Качество видео: SATRip
Аудиокодек: MP3, 2ch.
Битрейт аудио: 192 kb/s

MediaInfo

Формат : AVI
Формат/Информация : Audio Video Interleave
Размер файла : 602 Мбайт
Продолжительность : 47 м.
Общий поток : 1758 Кбит/сек
Программа кодирования : VirtualDubMod 1.5.10.3 | www.virtualdub-fr.org || (build 2550/release)
Библиотека кодирования : Boilsoft AVI tool build 1/release
Видео
Идентификатор : 0
Формат : MPEG-4 Visual
Профиль формата : Advanced [email protected]
Параметр BVOP формата : 1
Параметр QPel формата : Нет
Параметр GMC формата : Без точки перехода
Параметр матрицы формата : Default (H.263)
Идентификатор кодека : XVID
Идентификатор кодека/Подсказка : XviD
Продолжительность : 47 м.
Битрейт : 1556 Кбит/сек
Ширина : 720 пикселей
Высота : 400 пикселей
Соотношение сторон : 16:9
Частота кадров : 25,000 кадров/сек
Цветовое пространство : YUV
Субдискретизация насыщенности : 4:2:0
Битовая глубина : 8 бит
Тип развёртки : Прогрессивная
Метод сжатия : С потерями
Бит/(Пиксели*Кадры) : 0.216
Размер потока : 533 Мбайт (89%)
Библиотека кодирования : XviD 1.2.1 (UTC 2008-12-04)
Аудио
Идентификатор : 1
Формат : MPEG Audio
Версия формата : Version 1
Профиль формата : Layer 3
Режим : Joint stereo
Расширение режима : MS Stereo
Идентификатор кодека : 55
Идентификатор кодека/Подсказка : MP3
Продолжительность : 47 м.
Вид битрейта : Постоянный
Битрейт : 192 Кбит/сек
Каналы : 2 канала
Частота : 48,0 КГц
Метод сжатия : С потерями
Размер потока : 65,8 Мбайт (11%)
Выравнивание : Соединение по промежуткам
Продолжительность промежутка : 40 мс. (1,00 видеокадр)
Время предзагрузки промежутка : 504 мс.
Библиотека кодирования : LAME3.98r
Настройки программы : -m j -V 4 -q 2 -lowpass 18.6 -b 192
Скриншоты:                    
Other forum [Profile] [PM]
Display posts from previous:    
Reply to topic

The time now is: Today 12:50

All times are GMT + 3 Hours



You cannot post new topics in this forum
You cannot reply to topics in this forum
You cannot edit your posts in this forum
You cannot delete your posts in this forum
You cannot vote in polls in this forum
You cannot attach files in this forum
You cannot download files in this forum