Today is a free download without charge Download

Ты не один [8 серий из 8] (2013) SATRip

Reply to topic
 
Author
Message

Omen ®

Longevity: 8 years 11 months

Posts: 181086

Торрент-статистика

Post 27-Jan-2013 09:43

[Quote]

-Ты не один [8 серий из 8] (2013) SATRip- Русское название: Ты не один
Выпущено: Россия
Год выпуска: 2013
Жанр: Криминал, Детектив
Перевод: Не требуется (Русский)

Дата российской премьеры: 9 января 2013
Режиссер: Дмитрий Панченко
Актеры: Дмитрий Новицкий, Максим Радугин, Елена Болдина, Андрей Москвичев
Описание фильма:
Сериал "Ты не один" - истории о буднях адвокатов, чья специализация - оперативная работа по вызову. Трое сотрудников - юрист Владимир Николаевич Кузьмин, бывший оперуполномоченный милиции Максим Геннадьевич Загорский и выпускница престижного юридического ВУЗа Наталья Валерьевна Шатова, используя свои способности, возможности, полезные связи и контакты, экстренно приходят на помощь по первому звонку. Адвокаты работают как скорая помощь: спасают своих клиентов от выбивания долгов; защищают обманутых дольщиков; советуют, как выгодно развестись и избежать уплаты алиментов; помогают получить выплаты от страховой компании или по иску от ресторана за кишечное отравление... Каждая серия - законченное самостоятельное дело.
Продолжительность: 8 х ~ 00:25:53 серия
Качество видео: SATRip
Видеокодек: DivX 5
Битрейт видео: ~1600 Kbit/s
Размер кадра: 720 x 400
Аудиокодек: MP3, 2.0
Битрейт аудио: 192 Kbit/s

MediaInfo

Общее
Полное имя : D:\Торренты\Ты не один. 2013. SATRip\Ты не один. 01. 2013. SATRip.avi
Формат : AVI
Формат/Информация : Audio Video Interleave
Размер файла : 335 Мбайт
Продолжительность : 25 м.
Общий поток : 1809 Кбит/сек
Видео
Идентификатор : 0
Формат : MPEG-4 Visual
Профиль формата : [email protected]
Параметр BVOP формата : Нет
Параметр QPel формата : Нет
Параметр GMC формата : Без точки перехода
Параметр матрицы формата : Default (H.263)
Идентификатор кодека : DX50
Идентификатор кодека/Подсказка : DivX 5
Продолжительность : 25 м.
Битрейт : 1600 Кбит/сек
Ширина : 720 пикс.
Высота : 400 пикс.
Соотношение сторон : 16:9
Частота кадров : 25,000 кадр/сек
Цветовое пространство : YUV
Подвыборка цветности : 4:2:0
Битовая глубина : 8 бит
Тип развёртки : Прогрессивная
Метод сжатия : С потерями
Бит/(Пиксели*Кадры) : 0.222
Размер потока : 296 Мбайт (88%)
Библиотека кодирования : XviD 1.2.1 (UTC 2008-12-04)
Аудио
Идентификатор : 1
Формат : MPEG Audio
Версия формата : Version 1
Профиль формата : Layer 3
Режим : Joint stereo
Расширение режима : MS Stereo
Идентификатор кодека : 55
Идентификатор кодека/Подсказка : MP3
Продолжительность : 25 м.
Вид битрейта : Постоянный
Битрейт : 192 Кбит/сек
Каналы : 2 канала
Частота : 48,0 КГц
Метод сжатия : С потерями
Размер потока : 35,6 Мбайт (11%)
Выравнивание : Соединение по промежуткам
Продолжительность промежутка : 24 мс. (0,60 видеокадр)
Библиотека кодирования : LAME3.98.2
Скриншоты:
           
Время раздачи: 24/7 по возможности
Other forum [Profile] [PM]
Display posts from previous:    
Reply to topic

The time now is: Today 13:40

All times are GMT + 3 Hours



You cannot post new topics in this forum
You cannot reply to topics in this forum
You cannot edit your posts in this forum
You cannot delete your posts in this forum
You cannot vote in polls in this forum
You cannot attach files in this forum
You cannot download files in this forum