Today is a free download without charge Download

Паутина 6 [1-24 серия из 24] (2013) SATRip [Обновляемая]

Reply to topic
 
Author
Message

Omen ®

Longevity: 8 years 11 months

Posts: 181086

Торрент-статистика

Post 27-Jan-2013 09:43

[Quote]

-Паутина 6 [1-24 серия из 24] (2013) SATRip [Обновляемая]- Русское название: Паутина 6
Выпущено: Россия
Год выпуска: 2013
Жанр: Детектив
Перевод: Не требуется (Русский)

Дата российской премьеры: 9 января 2013
Режиссер: Андрей Хрулев
Актеры: Юлия Селиванова, Ника Балина, Янина Когут, Анна Куркова, Александр Денисов (III), Андрей Муравьёв, Ангелина Притуманова, Александр Баринов, Александра Булычёва, Олег Харитонов, Олег Филипчик, Маргарита Иванова-Донская (IV), Валерий Новиков, Николай Зазуля, Наталья Дворецкая, Евгений Галушко, Анна Карышева
Описание фильма:
Паутина криминальных связей становится больше. С ней продолжает борьбу начальник убойного отдела майор Фёдор Туманов (Олег Харитонов). В новом сезоне Туманов с капитаном Петром Грековым (Олег Филипчик) будут разгадывать ещё более изощрённые криминальные загадки. Например, в одной из них фигурирует чёрный тюльпан, что был в букете, который оказался на месте очередного преступления. Туманову кажется всё это подозрительным: чёрный тюльпан уж слишком контрастирует с нежными белыми розами. Греков считает, что Туманов отстал от жизни, ведь сейчас в нынешнем гламурном обществе нет никаких правил. Нашим операм придётся выяснить, что это: «гламур и дизигн» от современных флористов или атрибут изощренных методов преступника?
Продолжительность: 24 х ~ 00:45:41 серия
Качество видео: SATRip
Видеокодек: DivX 5
Битрейт видео: ~1500 Kbit/s
Размер кадра: 704 x 400
Аудиокодек: MP3, 2.0
Битрейт аудио: 192 Kbit/sВнимание! Раздача ведётся путём добавления новых серий

Внимание! Раздача ведётся путём добавления новых серий. Описание обновления торрента.

Внимание! Раздача ведётся путём добавления новых серий; при каждом добавлении создётся новый торрент. Чтобы начать докачку новой серии, пользователям необходимо сделать следующее:
(1) остановить скачивание,
(2) удалить старый торрент у себя из клиента (старые серии удалять не надо),
(3) скачать новый торрент и запустить его у себя в клиенте вместо старого, при этом указать клиенту путь в старую папку куда и должно происходить скачивание новых серий.
Ваш клиент при этом должен произвести хеширование (проверку) старой папки (если не производит сам - помогите ему сделать это), и будет докачивать только те серии которых у вас ещё нет. Старые серии при этом не удаляются, а продолжают раздаваться!
Eсли вы уже удалили старые серии, то предотвратить повторную закачку старых серий можно, отжав галочку в соответсвующих местах при запуске нового торрента. По возможности, желательно не удалять старые серии как можно дольше чтобы релизёр не столько продолжал раздавать старые серии, а смог сконцентрироваться на новых.

MediaInfo

Общее
Полное имя : D:\Торренты\Паутина 6. 2013. SATRip\Паутина 6.01.avi
Формат : AVI
Формат/Информация : Audio Video Interleave
Размер файла : 557 Мбайт
Продолжительность : 45 м.
Общий поток : 1705 Кбит/сек
Библиотека кодирования : Boilsoft AVI tool build 1/release
Видео
Идентификатор : 0
Формат : MPEG-4 Visual
Профиль формата : [email protected]
Параметр BVOP формата : Нет
Параметр QPel формата : Нет
Параметр GMC формата : Без точки перехода
Параметр матрицы формата : Default (H.263)
Идентификатор кодека : DX50
Идентификатор кодека/Подсказка : DivX 5
Продолжительность : 45 м.
Битрейт : 1500 Кбит/сек
Ширина : 704 пикс.
Высота : 400 пикс.
Соотношение сторон : 16:9
Частота кадров : 25,000 кадр/сек
Цветовое пространство : YUV
Подвыборка цветности : 4:2:0
Битовая глубина : 8 бит
Тип развёртки : Прогрессивная
Метод сжатия : С потерями
Бит/(Пиксели*Кадры) : 0.213
Размер потока : 490 Мбайт (88%)
Библиотека кодирования : XviD 1.2.1 (UTC 2008-12-04)
Аудио
Идентификатор : 1
Формат : MPEG Audio
Версия формата : Version 1
Профиль формата : Layer 3
Режим : Joint stereo
Расширение режима : MS Stereo
Идентификатор кодека : 55
Идентификатор кодека/Подсказка : MP3
Продолжительность : 45 м.
Вид битрейта : Постоянный
Битрейт : 192 Кбит/сек
Каналы : 2 канала
Частота : 48,0 КГц
Метод сжатия : С потерями
Размер потока : 62,7 Мбайт (11%)
Выравнивание : Соединение по промежуткам
Продолжительность промежутка : 24 мс. (0,60 видеокадр)
Время предзагрузки промежутка : 504 ms
Библиотека кодирования : LAME3.98.2

Название серий

1-4 Черные тюльпаны
5-8 Невидимые нити
9-12 Сон разума
13-16 Контракт на смерть
17-20 Синтетика
21-24 Мошенники на крови
Скриншоты:
           
Other forum [Profile] [PM]
Display posts from previous:    
Reply to topic

The time now is: Today 09:25

All times are GMT + 3 Hours



You cannot post new topics in this forum
You cannot reply to topics in this forum
You cannot edit your posts in this forum
You cannot delete your posts in this forum
You cannot vote in polls in this forum
You cannot attach files in this forum
You cannot download files in this forum