Today is a free download without charge Download

Право на правду [1-26 серия из 32] (2012) SATRip [Обновляемая]

Reply to topic
 
Author
Message

Omen ®

Longevity: 8 years 11 months

Posts: 181086

Торрент-статистика

Post 27-Jan-2013 09:43

[Quote]

-Право на правду [1-26 серия из 32] (2012) SATRip [Обновляемая]- Русское название: Право на правду
Выпущено: Россия, ПЦ "Пирамида"
Год выпуска: 2012
Жанр: Детектив, Криминальный фильм
Перевод: Не требуется (Русский)

Режиссер: Николай Барышников
Актеры: Елена Ксенофонтова, Борис Хвошнянский, Илья Исаев, Сергей Никоненко, Артур Ваха, Артем Осипов, Дарья Лузина, Ольга Торощина, Марина Коняшкина, Евгений Косырев, Денис Варенов, Александр Никольский (II), Евгения Чиркова, Алексей Кирсанов, Надежда Исайкина, Андрей Курилов, Анастасия Сапожникова, Дмитрий Собачкин, Николай Цонку, Владимир Ширяев (II), Дмитрий Рябов, Альбина Скобелева, Полина Ганшина, Всеволод Яшкин, Наталья Тетенова, Александра Булычёва, Надежда Егорова, Ольга Моховая, Виктор Конухин, Александр Пугачев (II), Олег Масленников (II), Александр Касаткин (II), Дмитрий Воронин, Владимир Гараев, Валентина Кошкина, Игорь Поселенов, Оксана Тимановская, Елена Медведева, Андрей Москвичев, Елена Коллегова, Геннадий Семёнов, Александр Берлин (II), Антон Никитин, Владислав Шкляев
Описание фильма:
При Следственном комитете Москвы создается специальный отдел, который должен заниматься расследованием случаев жестокого обращения. В компетенцию отдела входят расследования случаев физического и морального насилия в государственных учреждениях, вопиющие случаи несоблюдения прав человека, связанные с пытками и насилием, невыполнение служебных обязанностей органами следствия, жестокое обращение с детьми, женщинами, стариками. Курирующий этот спецотдел московский обмудсмен Сергей Прохоров выбирает на должность начальника судью Ольгу Байкову, отличающуюся независимым характером. Прохоров обещает Байковой, что отдел она сформирует сама. Ольга приступает к своим обязанностям. Первый человек, которого она предлагает в качестве эксперта, известный судебный психиатр Павел Митрохин. Оперативников выбирает тоже Ольга. Это ее ученики - неразлучная парочка, именуемая «волки и овцы». Вечные соперники и пикировщики Саша Волков и Ангелина Овечкина. Если Саша умен, душевно тонок, интеллигентен, то – Ангелина считается «инфан террибле», при этом – Саша внешне похож на демона, а Ангелина – просто ангел с картины Ботичелли. Байкова вынуждена согласиться на «человека от руководства». Это следователь Игорь Аржановский. Застегнутый на все пуговицы, исполнительный, умный, непробиваемо спокойный, но – резко выпадающий из «обоймы». Ольга считает его конформистом, Митрохин – заурядным карьеристом. Последним сотрудником отдела становится Егор Сумароков – «компьютерный гений без образования». Итак, отдел набран. Прохоров объясняет им всю сложность их работы. К ним будут попадать самые вопиющие факты нарушения прав человека, связанные с физическим и моральным насилием. Естественно, им часто будут противостоять, будет и противодействие со стороны силовых структур. Они должны помнить, те, кто проявляет бессмысленную жестокость, надеются на свою безнаказанность. И сегодня их надежды чаще всего сбываются. Спецотдел должен положить этому конец.
Продолжительность: 26 х ~ 00:43:46 серия
Качество видео: SATRip
Релиз-группа:
Видеокодек: Xvid
Битрейт видео: ~1265 Kbit/s
Размер кадра: 720 x 400
Аудиокодек: MP3, 2.0
Битрейт аудио: 128 Kbit/sВнимание! Раздача ведётся путём добавления новых серий

Внимание! Раздача ведётся путём добавления новых серий. Описание обновления торрента.

Внимание! Раздача ведётся путём добавления новых серий; при каждом добавлении создётся новый торрент. Чтобы начать докачку новой серии, пользователям необходимо сделать следующее:
(1) остановить скачивание,
(2) удалить старый торрент у себя из клиента (старые серии удалять не надо),
(3) скачать новый торрент и запустить его у себя в клиенте вместо старого, при этом указать клиенту путь в старую папку куда и должно происходить скачивание новых серий.
Ваш клиент при этом должен произвести хеширование (проверку) старой папки (если не производит сам - помогите ему сделать это), и будет докачивать только те серии которых у вас ещё нет. Старые серии при этом не удаляются, а продолжают раздаваться!
Eсли вы уже удалили старые серии, то предотвратить повторную закачку старых серий можно, отжав галочку в соответсвующих местах при запуске нового торрента. По возможности, желательно не удалять старые серии как можно дольше чтобы релизёр не столько продолжал раздавать старые серии, а смог сконцентрироваться на новых.

MediaInfo

Общее
Полное имя : D:\Торренты\ФИЛЬМЫ торента\Право на правду.2012.SATRip\Право на правду.01.2012.SATRip.avi
Формат : AVI
Формат/Информация : Audio Video Interleave
Профиль формата : OpenDML
Настройки формата : rec
Размер файла : 439 Мбайт
Продолжительность : 43 м.
Общий поток : 1402 Кбит/сек
Видео
Идентификатор : 0
Формат : MPEG-4 Visual
Профиль формата : Advanced [email protected]
Параметр BVOP формата : 3
Параметр QPel формата : Нет
Параметр GMC формата : Без точки перехода
Параметр матрицы формата : Default (MPEG)
Идентификатор кодека : XVID
Идентификатор кодека/Подсказка : XviD
Продолжительность : 43 м.
Битрейт : 1265 Кбит/сек
Ширина : 720 пикс.
Высота : 400 пикс.
Соотношение сторон : 16:9
Частота кадров : 25,000 кадр/сек
Цветовое пространство : YUV
Подвыборка цветности : 4:2:0
Битовая глубина : 8 бит
Тип развёртки : Прогрессивная
Метод сжатия : С потерями
Бит/(Пиксели*Кадры) : 0.176
Размер потока : 396 Мбайт (90%)
Библиотека кодирования : XviD 64
Аудио
Идентификатор : 1
Формат : MPEG Audio
Версия формата : Version 1
Профиль формата : Layer 3
Режим : Joint stereo
Расширение режима : MS Stereo
Идентификатор кодека : 55
Идентификатор кодека/Подсказка : MP3
Продолжительность : 43 м.
Вид битрейта : Постоянный
Битрейт : 128 Кбит/сек
Каналы : 2 канала
Частота : 48,0 КГц
Метод сжатия : С потерями
Размер потока : 40,1 Мбайт (9%)
Выравнивание : Соединение по промежуткам
Продолжительность промежутка : 24 мс. (0,60 видеокадр)
Время предзагрузки промежутка : 192 ms
Библиотека кодирования : LAME3.90.3ЄЄЄЄЄЄЄЄЄЄ
Скриншоты:
           
Время раздачи: 24/7 по возможности
Other forum [Profile] [PM]
Display posts from previous:    
Reply to topic

The time now is: Today 13:27

All times are GMT + 3 Hours



You cannot post new topics in this forum
You cannot reply to topics in this forum
You cannot edit your posts in this forum
You cannot delete your posts in this forum
You cannot vote in polls in this forum
You cannot attach files in this forum
You cannot download files in this forum