Today is a free download without charge Download

У каждого своя война / Шпана замоскворецкая / Серии: 1 - 16 из 16 (Зиновий Ройзман) [2011, военный фильм, драма, историче, DVDRip]

Reply to topic
 
Author
Message

nsa1977 ®

Gender:

Longevity: 11 years

Posts: 1470

Location: Пенза

Торрент-статистика

Post 08-May-2011 09:28

[Quote]

У каждого своя война / Шпана замоскворецкаяСерии: 1 - 16 из 16 -- Год выпуска: 2011
Производство: ООО Элегия
Жанр: военный фильм, драма, исторический
Продолжительность: 52 мин. серия.
Субтитры: нет
Режиссёр: Зиновий Ройзман-В ролях: Юрий Борисов (II), Полина Кутепова, Константин Лавроненко, Юрий Маслак, Андрей Мерзликин,
Игорь Петренко, Екатерина Стриженова, Александр Бухаров, Екатерина Вуличенко, Сергей Газаров,
Фёдор Добронравов, Юлия Куварзина, Анна Легчилова, Борис Плотников, Василий Прокопьев, Иван Громов,
Александра Стриженова, Константин Адаев, Евгения Бордзиловская, Злата Калмина, Мария Калмина,
Геннадий Пачис, Яна Чигир, Александр Числов, Катерина Шпица, Ян Воробьев, Антонина Каткова,
Ангелина Коршунова, Соня Круглова, Леся Кудряшова, Анна Гуляренко, Александр Касаткин (II)-Описание: Экранизация повести Эдуарда Володарского «У каждого своя война».
История подростковой любви школьника Роберта к Милке, подруге атамана замоскворецкой шпаны.
Фоном для этой романтической линии служат истории соседей, коммунальные интриги, военные
воспоминания — всё, что так хорошо знакомо послевоенному поколению москвичей.- -Качество: DVDRip
Формат: AVI
Видео кодек: XviD
Аудио кодек: MP3
Видео: 640x352 (1.82:1), 25 fps, XviD MPEG-4 ~1207 kbps avg, 0.21 bit/pixel
Аудио: 48 kHz, MPEG Layer 3, 2 ch, ~128.00 kbps avg

MI

Формат : AVI
Формат/Информация : Audio Video Interleave
Размер файла : 500 Мбайт
Продолжительность : 52 м.
Общий поток : 1343 Кбит/сек
Программа кодирования : VirtualDubMod 1.5.4.1 (build 2178/release)
Библиотека кодирования : VirtualDubMod build 2178/release
Видео
Идентификатор : 0
Формат : MPEG-4 Visual
Профиль формата : Advanced [email protected]
Параметр BVOP формата : 1
Параметр QPel формата : Нет
Параметр GMC формата : Без точки перехода
Параметр матрицы формата : Выборочная
Идентификатор кодека : XVID
Идентификатор кодека/Подсказка : XviD
Продолжительность : 52 м.
Битрейт : 1207 Кбит/сек
Ширина : 640 пикс.
Высота : 352 пикс.
Соотношение сторон : 16:9
Частота кадров : 25,000 кадр/сек
Цветовое пространство : YUV
Подвыборка цветности : 4:2:0
Битовая глубина : 8 бит
Тип развёртки : Прогрессивная
Метод сжатия : С потерями
Бит/(Пиксели*Кадры) : 0.214
Размер потока : 450 Мбайт (90%)
Библиотека кодирования : XviD 1.2.1 (UTC 2008-12-04)
Аудио
Идентификатор : 1
Формат : MPEG Audio
Версия формата : Version 1
Профиль формата : Layer 3
Режим : Joint stereo
Расширение режима : MS Stereo
Идентификатор кодека : 55
Идентификатор кодека/Подсказка : MP3
Продолжительность : 52 м.
Вид битрейта : Постоянный
Битрейт : 128 Кбит/сек
Канал(ы) : 2 канала(ов)
Частота : 48,0 КГц
Метод сжатия : С потерями
Размер потока : 47,7 Мбайт (10%)
Выравнивание : Соединение по промежуткам
Продолжительность промежутка : 80 мс. (2,00 видеокадров)
Время предзагрузки промежутка : 504 ms
Библиотека кодирования : LAME3.97
Настройки программы : -m j -V 4 -q 2 -lowpass 17 -b 128
    

_________________


Last edited by nsa1977 on 2011-05-16 02:33; edited 7 times in total
Other forum [Profile] [PM]

nsa1977 ®

Gender:

Longevity: 11 years

Posts: 1470

Location: Пенза

Торрент-статистика

Post 16-May-2011 02:34 (after 7 days)

[Quote]

добавил новые серии 9-16 Cool

_________________
Other forum [Profile] [PM]
Display posts from previous:    
Reply to topic

The time now is: Today 13:20

All times are GMT + 3 Hours



You cannot post new topics in this forum
You cannot reply to topics in this forum
You cannot edit your posts in this forum
You cannot delete your posts in this forum
You cannot vote in polls in this forum
You cannot attach files in this forum
You cannot download files in this forum