Today is a free download without charge Download

Сокровище Амазонки / The Rundown (Питер Берг / Peter Berg) [2003, приключения, боевик, триллер, комедия, BDRip 1080p]

Reply to topic
 
Author
Message

Delia ®

Gender:

Longevity: 10 years

Posts: 1821

Торрент-статистика

Post 25-Jan-2013 23:56

[Quote]

-Сокровище АмазонкиThe Rundown«Присоединяйся к поискам!»-- Год выпуска: 2003
Страна: США
Жанр: боевик, триллер, комедия, приключения
Продолжительность: 01:44:15
Перевод: Профессиональный (полное дублирование)
Режиссер: Питер Берг / Peter Berg В ролях: Дуэйн Джонсон (Beck), Шонн Уильям Скотт (Travis), Розарио Доусон (Mariana), Кристофер Уокен (Hatcher), Юэн Бремнер (Declan), Джон Грайз (Harvey), Уильям Лаккинг (Walker), Эрни Рейес мл. (Manito), Стюарт Ф. Уилсон (Swenson), Дэннис Кейффер (Naylor), Гаррет Уоррен (Henshaw), Тоби Холгин (Head Indian Tracker)-Описание: Если поступило предложение, от которого нельзя отказаться, - вот и не отказывайся! В качестве расплаты с долгом перед мафией интеллигентному громиле Беку предлагается отправиться в джунгли Амазонки и доставить домой затерявшегося где-то там афериста Трэвиса, блудного сына «крестного отца».
Вот только прибыв на место, герой обнаруживает, что шансов доставить свой груз не по частям у него маловато. Непутевый Трэвис перешел дорожку местному авторитету Хэтчеру, начав охоту за легендарным золотым идолом индейцев, на который тот давно мечтал наложить лапу. Беку не остается иного выбора, как призвать на помощь свои незаурядное чувство юмора, стальные мускулы и вступить в сумасшедшую гонку за сокровищем, пока его «клиента» не скормили ягуарам!..
-
MPAA: - Детям до 13 лет просмотр не желателен--
Качество: BDRip
Контейнер: MKV
Видео: AVC, 1920x816 (2.35:1), 9189 kbps, 23,976 fps, 0,245 bpp
Аудио №1: русский /; AC3 /; 5.1 /; 48 kHz /; 640 kbps /; 16 bit; |Дубляж|
Аудио №2: русский /; AC3 /; 5.1 /; 48 kHz /; 640 kbps /; 16 bit; |Ю.Живов|
Аудио №3: английский /; AC3 /; 5.1 /; 48 kHz /; 448 kbps /; 16 bit
Субтитры №1: русские
Субтитры №2: английские
Навигация по главам: есть--

Media Info

General
Unique ID : 245262710447546784118754483189540954770 (0xB883E13C7D619BF99B6016A391AFA292)
Complete name : E:\The Rundown.2003.1080p.F-HD.mkv
Format : Matroska
Format version : Version 4 / Version 2
File size : 7.94 GiB
Duration : 1h 44mn
Overall bit rate : 10.9 Mbps
Encoded date : UTC 2013-01-25 19:55:09
Writing application : mkvmerge v6.0.0 ('Coming Up For Air') built on Jan 20 2013 09:52:00
Writing library : libebml v1.3.0 + libmatroska v1.4.0
Video
ID : 1
Format : AVC
Format/Info : Advanced Video Codec
Format profile : [email protected]
Format settings, CABAC : Yes
Format settings, ReFrames : 4 frames
Codec ID : V_MPEG4/ISO/AVC
Duration : 1h 44mn
Bit rate : 9 189 Kbps
Width : 1 920 pixels
Height : 816 pixels
Display aspect ratio : 2.35:1
Frame rate : 23.976 fps
Color space : YUV
Chroma subsampling : 4:2:0
Bit depth : 8 bits
Scan type : Progressive
Bits/(Pixel*Frame) : 0.245
Stream size : 6.53 GiB (82%)
Writing library : x264 core 129 r2245kMod bc13772
Encoding settings : cabac=1 / ref=4 / deblock=1:-3:-3 / analyse=0x3:0x113 / me=umh / subme=10 / psy=1 / fade_compensate=0.00 / psy_rd=1.05:0.05 / mixed_ref=1 / me_range=48 / chroma_me=1 / trellis=2 / 8x8dct=1 / cqm=0 / deadzone=21,11 / fast_pskip=0 / chroma_qp_offset=-3 / threads=6 / lookahead_threads=1 / sliced_threads=0 / nr=0 / decimate=1 / interlaced=0 / bluray_compat=0 / constrained_intra=0 / bframes=9 / b_pyramid=2 / b_adapt=2 / b_bias=0 / direct=3 / weightb=1 / open_gop=0 / weightp=2 / keyint=240 / keyint_min=23 / scenecut=40 / intra_refresh=0 / rc=2pass / mbtree=0 / bitrate=9189 / ratetol=1.0 / qcomp=0.70 / qpmin=8 / qpmax=51 / qpstep=4 / cplxblur=20.0 / qblur=0.5 / ip_ratio=1.30 / pb_ratio=1.20 / aq=3:0.80
Default : Yes
Forced : No
Matrix coefficients : BT.709-5, BT.1361, IEC 61966-2-4 709, SMPTE RP177
Audio #1
ID : 2
Format : AC-3
Format/Info : Audio Coding 3
Mode extension : CM (complete main)
Codec ID : A_AC3
Duration : 1h 44mn
Bit rate mode : Constant
Bit rate : 640 Kbps
Channel(s) : 6 channels
Channel positions : Front: L C R, Side: L R, LFE
Sampling rate : 48.0 KHz
Bit depth : 16 bits
Compression mode : Lossy
Stream size : 477 MiB (6%)
Title : Дубляж, Blu-ray CEE
Language : Russian
Default : Yes
Forced : No
Audio #2
ID : 3
Format : AC-3
Format/Info : Audio Coding 3
Mode extension : CM (complete main)
Codec ID : A_AC3
Duration : 1h 44mn
Bit rate mode : Constant
Bit rate : 640 Kbps
Channel(s) : 6 channels
Channel positions : Front: L C R, Side: L R, LFE
Sampling rate : 48.0 KHz
Bit depth : 16 bits
Compression mode : Lossy
Stream size : 477 MiB (6%)
Title : Avo . Ю.Живов
Language : Russian
Default : No
Forced : No
Audio #3
ID : 4
Format : AC-3
Format/Info : Audio Coding 3
Mode extension : CM (complete main)
Codec ID : A_AC3
Duration : 1h 44mn
Bit rate mode : Constant
Bit rate : 448 Kbps
Channel(s) : 6 channels
Channel positions : Front: L C R, Side: L R, LFE
Sampling rate : 48.0 KHz
Bit depth : 16 bits
Compression mode : Lossy
Stream size : 334 MiB (4%)
Language : English
Default : No
Forced : No
Text #1
ID : 5
Format : UTF-8
Codec ID : S_TEXT/UTF8
Codec ID/Info : UTF-8 Plain Text
Language : Russian
Default : No
Forced : No
Text #2
ID : 6
Format : UTF-8
Codec ID : S_TEXT/UTF8
Codec ID/Info : UTF-8 Plain Text
Language : English
Default : No
Forced : No
Menu
00:00:00.000 : en:The Retrieval Expert
00:08:58.996 : en:One Last Job
00:11:31.816 : en:Brazil
00:14:33.873 : en:Flower for Mariana
00:16:29.113 : en:One Man's Refrigerator
00:20:48.956 : en:Option C
00:26:56.698 : en:Enjoy the Fall
00:29:17.881 : en:The Wrong Foot
00:31:57.832 : en:They Got My Tooth
00:33:46.858 : en:No Breaks
00:36:29.979 : en:Pee Break
00:38:48.326 : en:Monkey Business
00:42:17.034 : en:Rebels
00:48:35.120 : en:Why We Fight
00:52:06.957 : en:The Cleanup
00:54:22.968 : en:A Deal
00:58:42.977 : en:Beyond the Moving Curtain
01:05:30.301 : en:Konlobos (with a "K")
01:09:13.482 : en:I Wanna Go Home
01:10:36.065 : en:Change of Plan
01:14:44.688 : en:The Wrong Choice
01:16:15.320 : en:Hell in El Dorado
01:21:46.318 : en:Force of One
01:27:10.058 : en:Hatcher's Last Option
01:30:18.079 : en:Delivering on the Deal
01:32:49.397 : en:A Headache Like You
01:35:49.160 : en:No More Pushing
01:37:19.124 : en:End Titles


Скриншоты

     
     

_________________
Человек – это канат, натянутый между животным и сверхчеловеком, – канат над пропастью.
В человеке ценно то, что он мост, а не цель. Фридрих Ницше
Other forum [Profile] [PM]
Similar theme
Forum Topic Author Torrent Replies Last Post
./templates/default/images/folder_dl.gif Медицина и Здоровье Генрих Ужегов | Сокровищница народной медицины [6 книг] (2016) [FB2] Omen
1 | 0

0 | 1383

5

2015-03-10 18:01
Omen Latest
./templates/default/images/folder_dl.gif Техническая и научно-популярная литература Де Агостини | Самый сокровенный секрет материи. Мария Кюри. Радиоактивность и элементы (Наука. Величайшие теории Т. 10) (2015) [PDF] Omen
1 | 0

0 | 523

3

2015-03-18 16:21
Omen Latest
Display posts from previous:    
Reply to topic

The time now is: Today 02:23

All times are GMT + 3 Hours



You cannot post new topics in this forum
You cannot reply to topics in this forum
You cannot edit your posts in this forum
You cannot delete your posts in this forum
You cannot vote in polls in this forum
You cannot attach files in this forum
You cannot download files in this forum