Today is a free download without charge Download

Остров ненужных людей / Сезон: 1 / Серии: 24 из 1-24 (Эдуард Парри) [2011, приключенческая драма, WEB-DL 720p]

Reply to topic
 
Author
Message

Omen ®

Longevity: 8 years 11 months

Posts: 181086

Торрент-статистика

Post 25-Jan-2013 23:20

[Quote]

Остров ненужных людей
Год выпуска: 2011
Производство: Россия, STAR MEDIA
Жанр: приключенческая драма
Продолжительность: ~00:45
Режиссёр: Эдуард Парри
В ролях: Эльвира Болгова, Дмитрий Ульянов, Александр Панкратов-Черный, Александр Робак, Юлия Силаева, Павел Трубинер, Екатерина Стулова, Сергей Чирков, Константин Милованов, Галина Звягинцева, Игорь Воробьев, Людмила Степченкова, Нелли Пшенная, Максим Лагашкин, Ольга Кабо
Описание: Группа российских туристов отправляется в экзотический круиз по азиатской стране, но вскоре внезапное кораблекрушение меняет всю их жизнь.
Тринадцать человек спасаются на необитаемом острове, как позже выясняется, - совсем не случайно. Двенадцать из них отправлены в злосчастный круиз теми, кому они были "не нужны": близкими людьми, партнерами по бизнесу, родителями и детьми... И лишь один оказался в этой компании волею судьбы. Кто этот тринадцатый, кем и зачем была организована экспедиция, какие загадки и опасности таят джунгли острова и смогут ли спасшиеся измениться и пережить предательство близких?
Качество: WEBRip 720p
Формат: MKV
Видео кодек: H.264
Аудио кодек: AAC
Видео:
MPEG4 Video (H264) 1280х720 25fps 1800kbps 0,078Bit/Pixel - 1,2,3,7-15,17-24
MPEG4 Video (H264) 1280х718 25fps 1800kbps 0,078Bit/Pixel - 4,5,6,16
Аудио: AAC 44100Hz stereo 192kbps

MI

Общее
Полное имя : E:\Сериалы\ОСТРОВ НЕНУЖНЫХ ЛЮДЕЙ\Остров ненужных людей hdtv 720p\Остров_ненужных_людей_01.mkv
Формат : MPEG-4
Профиль формата : Base Media
Идентификатор кодека : isom
Размер файла : 620 Мбайт
Продолжительность : 43 м.
Общий поток : 1998 Кбит/сек
Программа кодирования : Lavf54.22.104
Видео
Идентификатор : 1
Формат : AVC
Формат/Информация : Advanced Video Codec
Профиль формата : [email protected]
Параметр CABAC формата : Да
Параметр ReFrames формата : 3 кадра
Идентификатор кодека : avc1
Идентификатор кодека/Информация : Advanced Video Coding
Продолжительность : 43 м.
Битрейт : 1800 Кбит/сек
Ширина : 1280 пикселей
Высота : 720 пикселей
Соотношение сторон : 16:9
Режим частоты кадров : Постоянный
Частота кадров : 25,000 кадров/сек
Цветовое пространство : YUV
Субдискретизация насыщенности : 4:2:0
Битовая глубина : 8 бит
Тип развёртки : Прогрессивная
Бит/(Пиксели*Кадры) : 0.078
Размер потока : 558 Мбайт (90%)
Библиотека кодирования : x264 core 122
Настройки программы : cabac=1 / ref=3 / deblock=1:0:0 / analyse=0x3:0x133 / me=umh / subme=7 / psy=1 / psy_rd=1.00:0.00 / mixed_ref=1 / me_range=32 / chroma_me=1 / trellis=2 / 8x8dct=1 / cqm=0 / deadzone=21,11 / fast_pskip=1 / chroma_qp_offset=-2 / threads=12 / sliced_threads=0 / nr=0 / decimate=1 / interlaced=0 / bluray_compat=0 / constrained_intra=0 / bframes=0 / weightp=0 / keyint=75 / keyint_min=26 / scenecut=40 / intra_refresh=0 / rc_lookahead=50 / rc=2pass / mbtree=0 / bitrate=1800 / ratetol=1.0 / qcomp=0.20 / qpmin=10 / qpmax=51 / qpstep=4 / cplxblur=20.0 / qblur=0.5 / vbv_maxrate=2000 / vbv_bufsize=2000 / nal_hrd=none / ip_ratio=1.40 / aq=1:1.00
Основные цвета : BT.709
Характеристики трансфера : BT.709
Коэффициенты матрицы : BT.709
Аудио
Идентификатор : 2
Формат : AAC
Формат/Информация : Advanced Audio Codec
Профиль формата : LC
Идентификатор кодека : 40
Продолжительность : 43 м.
Вид битрейта : Постоянный
Битрейт : 192 Кбит/сек
Каналы : 2 канала
Расположение каналов : Front: L R
Частота : 44,1 КГц
Метод сжатия : С потерями
Размер потока : 59,6 Мбайт (10%)

Скриншоты












Other forum [Profile] [PM]
Similar theme
Forum Topic Author Torrent Replies Last Post
./templates/default/images/folder_dl.gif Компьютерная литература Томас Кормен и др. | Алгоритмы. Построение и анализ. Издание 3-е (2013) [DJVU, PDF] moralis
1 | 0

0 | 774

4

2016-02-20 22:14
moralis Latest
Display posts from previous:    
Reply to topic

The time now is: Today 09:50

All times are GMT + 3 Hours



You cannot post new topics in this forum
You cannot reply to topics in this forum
You cannot edit your posts in this forum
You cannot delete your posts in this forum
You cannot vote in polls in this forum
You cannot attach files in this forum
You cannot download files in this forum