Today is a free download without charge Download

Петрович / Серии: 01-10 из 24 (Геннадий Байсак, Георгий Гаврилов) [2012, Криминал, детектив, SATRip]

Reply to topic
 
Author
Message

Omen ®

Longevity: 8 years 11 months

Posts: 181086

Торрент-статистика

Post 25-Jan-2013 19:16

[Quote]

Петрович- Год выпуска: 2012
Производство: Киностудия "Версия"
Жанр: Криминал, детектив
Продолжительность: ~ 00:47:00
Режиссёр: Геннадий Байсак, Георгий Гаврилов-В ролях: Алексей Петренко, Илья Шакунов, Андрей Барило, Анастасия Панина, Марина Голуб, Сергей Цепов, Евдокия Германова, Иван Николаев, Лолита Милявская, Влад Топалов, Анатолий Котенев, Борис Каморзин, Екатерина Семенова, Сергей Мурзин, Сергей Степанченко, Виктория Тарасова-Описание: Новый детективный сериал НТВ — о работе необычной адвокатской конторы «Петрович». Руководитель – Трофим Петрович Стрельцов — и его помощник Егор не только защищают людей, но и проводят собственные расследования самых запутанных дел. В этом уникальность их работы, но в этом и ее главный подвох: если юристы найдут доказательства виновности клиента, то на защиту конторы он рассчитывать не сможет. Жестко, но честно! Петрович сознательно идет на риск: пусть он потеряет адвокатскую лицензию, но останется верен себе и своим принципам. В каждой истории Петровича и Егора ждут человеческие драмы, подлость и лицемерие. Однако сбить Петровича с толку не способны даже самые коварные преступники! Опыт и профессиональное чутье помогают ему найти выход из, казалось бы, тупиковых ситуаций. Расследование убийства собственного сына, ложное обвинение бизнесмена в коррупции, нападение на учителя или на инкассаторов – для Петровича нет дела важнее, чем то, которым он занят в данный момент. Можно не сомневаться: он доведет дело до конца и правосудие восторжествует!-- -Качество: SATRip
Формат: AVI
Видео кодек: DivX
Аудио кодек: MP3
Видео: 720x400 (1.80:1), 25 fps, XviD MPEG-4 ~1589 kbps avg, 0.22 bit/pixel
Аудио: 48 kHz, MPEG Layer 3, 2 ch, ~128.00 kbps avg-

MI

Общее
Формат : AVI
Формат/Информация : Audio Video Interleave
Размер файла : 562 Мбайт
Продолжительность : 45 м.
Общий поток : 1725 Кбит/сек
Видео
Идентификатор : 0
Формат : MPEG-4 Visual
Профиль формата : Advanced [email protected]
Параметр BVOP формата : 2
Параметр QPel формата : Нет
Параметр GMC формата : Без точки перехода
Параметр матрицы формата : Default (MPEG)
Идентификатор кодека : XVID
Идентификатор кодека/Подсказка : XviD
Продолжительность : 45 м.
Битрейт : 1487 Кбит/сек
Ширина : 720 пикселей
Высота : 400 пикселей
Соотношение сторон : 16:9
Частота кадров : 25,000 кадров/сек
Цветовое пространство : YUV
Субдискретизация насыщенности : 4:2:0
Битовая глубина : 8 бит
Тип развёртки : Прогрессивная
Метод сжатия : С потерями
Бит/(Пиксели*Кадры) : 0.207
Размер потока : 485 Мбайт (86%)
Библиотека кодирования : XviD 64
Аудио
Идентификатор : 1
Формат : MPEG Audio
Версия формата : Version 1
Профиль формата : Layer 3
Режим : Joint stereo
Расширение режима : MS Stereo
Идентификатор кодека : 55
Идентификатор кодека/Подсказка : MP3
Продолжительность : 45 м.
Вид битрейта : Постоянный
Битрейт : 128 Кбит/сек
Каналы : 2 канала
Частота : 48,0 КГц
Метод сжатия : С потерями
Задержка видео : 8 мс.
Размер потока : 41,7 Мбайт (7%)
Выравнивание : Соединение по промежуткам
Продолжительность промежутка : 24 мс. (0,60 видеокадр)
Время предзагрузки промежутка : 8 мс.

Скриншоты

Other forum [Profile] [PM]
Display posts from previous:    
Reply to topic

The time now is: Today 14:15

All times are GMT + 3 Hours



You cannot post new topics in this forum
You cannot reply to topics in this forum
You cannot edit your posts in this forum
You cannot delete your posts in this forum
You cannot vote in polls in this forum
You cannot attach files in this forum
You cannot download files in this forum