Today is a free download without charge Download

Французский поцелуй / French Kiss (Лоуренс Кэздан / Lawrence Kasdan) [1995 г., Великобритания, США , мелодрама, комедия, BDRip 1080p]

Reply to topic
 
Author
Message

Omen ®

Longevity: 8 years 5 months

Posts: 181087

Торрент-статистика

Post 25-Jan-2013 19:16

[Quote]

Французский поцелуй / French Kiss Страна: Великобритания, США
Жанр: драма, мелодрама, комедия
Год выпуска: 1995
Продолжительность: 01:51:13
Перевод: Профессиональный (многоголосый закадровый) ОРТ
Перевод 2: Профессиональный (многоголосый закадровый) Екатеринбург-Арт
Перевод 3: Авторский (одноголосый закадровый) Ю.Живов
Перевод 4: Авторский (одноголосый закадровый) П.Карцев
Оригинальная аудиодорожка:Английская
Cубтитры (srt): Английские
Режиссер: Лоуренс Кэздан
В ролях: Мег Райан, Кевин Клайн, Тимоти Хаттон, Жан Рено, Франсуа Клюзе, Сюзен Анбе, Рене Хамфри, Майкл Райли, Лорен Шпильфогель, Виктор Гарривье
Описание: Чарли уезжает в Париж на конференцию, а его невеста не летит с ним из-за страха перед самолетами. Через несколько дней он звонит ей и сообщает, что полюбил другую. Кейт сразу же прыгает в самолет, и страх ей помогает преодолеть грубоватый француз — Люк, оказавшийся вором и контрабандистом, положившим в ее сумочку дорогое ожерелье, чтобы избежать трудностей на таможне. В итоге Кейт и Люк влюбляются друг в друга…
Тип релиза: BDRip 1080p
Контейнер: MKV
Видео: AVC [email protected] / 1920x814p / 11200 kbps / 23.976 fps / 2,35:1
Аудио 1: Русский: AC-3 2.0 / 48 kHz / 16 bit / 192 kbps — профессиональный (многоголосый, закадровый) ОРТ
Аудио 2: Русский: AC-3 2.0 / 48 kHz / 16 bit / 192 kbps — профессиональный (многоголосый, закадровый) Екатеринбург-Арт
Аудио 3: Русский: AC-3 5.1 / 48 kHz / 16 bit / 384 kbps — Авторский (одноголосый закадровый) Ю.Живов
Аудио 4: Русский: AC-3 2.0 / 48 kHz / 16 bit / 192 kbps — Авторский (одноголосый закадровый) П.Карцев
Аудио 5: Английский: DTS 5.1 / 48 kHz / 24-bit / 1510 kbps

MediaInfo

Общее
Уникальный идентификатор : 179258749227375822604019282551226468661 (0x86DBFAB2F2DE4F339AB17F5264E78935)
Полное имя : \\MYBOOKLIVE\Public\Shared Videos\French Kiss 1995 BDRip 1080p.mkv
Формат : Matroska
Версия формата : Version 4 / Version 2
Размер файла : 9,47 Гбайт
Продолжительность : 1 ч. 51 м.
Общий поток : 12,2 Мбит/сек
Дата кодирования : UTC 2010-02-22 21:41:31
Программа кодирования : mkvmerge v5.9.0 ('On The Loose') built on Dec 9 2012 15:37:01
Библиотека кодирования : libebml v1.3.0 + libmatroska v1.4.0
Видео
Идентификатор : 1
Формат : AVC
Формат/Информация : Advanced Video Codec
Профиль формата : [email protected]
Параметр CABAC формата : Да
Параметр ReFrames формата : 4 кадра
Идентификатор кодека : V_MPEG4/ISO/AVC
Продолжительность : 1 ч. 51 м.
Битрейт : 11,2 Мбит/сек
Ширина : 1920 пикселей
Высота : 814 пикселей
Соотношение сторон : 2,35:1
Частота кадров : 23,976 кадра/сек
Цветовое пространство : YUV
Субдискретизация насыщенности : 4:2:0
Битовая глубина : 8 бит
Тип развёртки : Прогрессивная
Бит/(Пиксели*Кадры) : 0.300
Размер потока : 8,54 Гбайт (90%)
Библиотека кодирования : x264 core 129 r2230 1cffe9f
Настройки программы : cabac=1 / ref=4 / deblock=1:-1:-1 / analyse=0x3:0x113 / me=umh / subme=7 / psy=1 / psy_rd=1.00:0.00 / mixed_ref=1 / me_range=16 / chroma_me=1 / trellis=2 / 8x8dct=1 / cqm=0 / deadzone=21,11 / fast_pskip=1 / chroma_qp_offset=-2 / threads=6 / lookahead_threads=1 / sliced_threads=0 / nr=0 / decimate=1 / interlaced=0 / bluray_compat=0 / constrained_intra=0 / bframes=3 / b_pyramid=0 / b_adapt=2 / b_bias=0 / direct=3 / weightb=1 / open_gop=0 / weightp=2 / keyint=240 / keyint_min=23 / scenecut=40 / intra_refresh=0 / rc_lookahead=40 / rc=2pass / mbtree=1 / bitrate=11238 / ratetol=1.0 / qcomp=0.60 / qpmin=10 / qpmax=51 / qpstep=4 / cplxblur=20.0 / qblur=0.5 / vbv_maxrate=50000 / vbv_bufsize=50000 / nal_hrd=none / ip_ratio=1.40 / aq=1:1.00
Язык : English
Default : Да
Forced : Нет
Аудио #1
Идентификатор : 2
Формат : AC-3
Формат/Информация : Audio Coding 3
Расширение режима : CM (complete main)
Идентификатор кодека : A_AC3
Продолжительность : 1 ч. 51 м.
Вид битрейта : Постоянный
Битрейт : 192 Кбит/сек
Каналы : 2 канала
Расположение каналов : Front: L R
Частота : 48,0 КГц
Битовая глубина : 16 бит
Метод сжатия : С потерями
Размер потока : 153 Мбайт (2%)
Заголовок : MVO, OPT
Язык : Russian
Default : Да
Forced : Нет
Аудио #2
Идентификатор : 3
Формат : AC-3
Формат/Информация : Audio Coding 3
Расширение режима : CM (complete main)
Идентификатор кодека : A_AC3
Продолжительность : 1 ч. 51 м.
Вид битрейта : Постоянный
Битрейт : 192 Кбит/сек
Каналы : 2 канала
Расположение каналов : Front: L R
Частота : 48,0 КГц
Битовая глубина : 16 бит
Метод сжатия : С потерями
Размер потока : 153 Мбайт (2%)
Заголовок : DVO, Ekaterinburg-Art
Язык : Russian
Default : Нет
Forced : Нет
Аудио #3
Идентификатор : 4
Формат : AC-3
Формат/Информация : Audio Coding 3
Расширение режима : CM (complete main)
Идентификатор кодека : A_AC3
Продолжительность : 1 ч. 51 м.
Вид битрейта : Постоянный
Битрейт : 384 Кбит/сек
Каналы : 6 каналов
Расположение каналов : Front: L C R, Side: L R, LFE
Частота : 48,0 КГц
Битовая глубина : 16 бит
Метод сжатия : С потерями
Размер потока : 305 Мбайт (3%)
Заголовок : AVO, Zhivov
Язык : Russian
Default : Нет
Forced : Нет
Аудио #4
Идентификатор : 5
Формат : AC-3
Формат/Информация : Audio Coding 3
Расширение режима : CM (complete main)
Идентификатор кодека : A_AC3
Продолжительность : 1 ч. 51 м.
Вид битрейта : Постоянный
Битрейт : 192 Кбит/сек
Каналы : 2 канала
Расположение каналов : Front: L R
Частота : 48,0 КГц
Битовая глубина : 16 бит
Метод сжатия : С потерями
Размер потока : 153 Мбайт (2%)
Заголовок : AVO, Karcev
Язык : Russian
Default : Нет
Forced : Нет

Скриншоты

Other forum [Profile] [PM]
Similar theme
Forum Topic Author Torrent Replies Last Post
./templates/default/images/folder_dl.gif Зарубежное кино Невезучие / La chèvre (Франсис Вебер / Francis Veber) [1981, Франция, Мексика, Мальта, комедия, криминал, приключения, BDRip 720p] Dub + 2x MVO + DVO + Sub Rus, Eng + Original Fre Omen
1 | 0

0 | 365

0

2015-02-19 12:00
Omen Latest
./templates/default/images/folder_dl.gif Современная проза, классика, поэзия Кафка Франц - Процесс [Ирина Ерисанова, 2003 г., 160 kbps, MP3] Omen
1 | 0

0 | 611

0

2016-09-06 01:00
Omen Latest
Display posts from previous:    
Reply to topic

The time now is: Today 09:59

All times are GMT + 3 Hours



You cannot post new topics in this forum
You cannot reply to topics in this forum
You cannot edit your posts in this forum
You cannot delete your posts in this forum
You cannot vote in polls in this forum
You cannot attach files in this forum
You cannot download files in this forum