Today is a free download without charge Download

Интерны / Сезон: 8 / Серии: 1, 2(141, 142) из ?? (Максим Пежемский, Заур Болотаев, Милан Килибарда, Евгений Невский, Радда Новикова) [2012, Ситком, DVB]

Reply to topic
 
Author
Message

Omen ®

Longevity: 8 years 11 months

Posts: 181086

Торрент-статистика

Post 25-Jan-2013 15:08

[Quote]

Интерны

Год выпуска: 2012
Производство: Россия, Comedy Club Production
Жанр: Ситком
Продолжительность: ~ 00:25:00
Режиссёр: Максим Пежемский, Заур Болотаев, Милан Килибарда,
Евгений Невский, Радда Новикова
В ролях: Иван Охлобыстин, Кристина Асмус, Илья Глинников, Александр Ильин, Байрон Один Ланд,
Вадим Демчог, Светлана Камынина, Светлана Пермякова
Описание: Главные герои ситкома — четыре интерна. Они все время попадают в идиотские ситуации,
а их руководитель доктор Быков с удовольствием за этим наблюдает.
Доводить интернов до белого каления Быкову помогает друг доктор Купитман
и мешает главврач больницы Анастасия Кисегач.
Сэмпл
Все раздачи сериала
Запись со спутника Ямал-С (Временно)
Качество: DVB
Формат: MPEG-PS
Видео кодек: MPEG2
Аудио кодек: MP2
Видео: 720х576, 4:3, 3726 Kbps, 25 fps
Аудио: 192 Kbps, 48.0 KHz, 2 ch

Раздача ведется путем добавления новых серий

Внимание! Раздача ведётся путём добавления новых серий; при каждом добавлении создётся новый торрент. Чтобы начать докачку новой серии, пользователям необходимо сделать следующее:
(1) остановить скачивание,
(2) удалить старый торрент у себя из клиента (старые серии удалять не надо),
(3) скачать новый торрент и запустить его у себя в клиенте вместо старого, при этом указать клиенту путь в старую папку куда и должно происходить скачивание новых серий.
Ваш клиент при этом должен произвести хеширование (проверку) старой папки (если не производит сам - помогите ему сделать это), и будет докачивать только те серии которых у вас ещё нет. Старые серии при этом не удаляются, а продолжают раздаваться!
Eсли вы уже удалили старые серии, то предотвратить повторную закачку старых серий можно, отжав галочку в соответствующих местах при запуске нового торрента.

MI

F:\КОМЕДИИ\Интерны (8 сезон)\Интерны - 141 серия.mpg
General
Complete name : F:\КОМЕДИИ\Интерны (8 сезон)\Интерны - 141 серия.mpg
Format : MPEG-PS
File size : 700 MiB
Duration : 24mn 27s
Overall bit rate mode : Variable
Overall bit rate : 4 002 Kbps
Writing library : (c) 1998-2011 Womble Multimedia, Inc. / MPEG Video Wizard DVD 5.0.1.100 (03/2011) / May 27 2011
Video #224
ID : 224 (0xE0)
Format : MPEG Video
Format version : Version 2
Format profile : [email protected]
Format settings, BVOP : Yes
Format settings, Matrix : Custom
Format settings, GOP : M=3, N=10
Duration : 24mn 27s
Bit rate mode : Variable
Bit rate : 3 730 Kbps
Maximum bit rate : 15.0 Mbps
Width : 720 pixels
Height : 576 pixels
Display aspect ratio : 4:3
Frame rate : 25.000 fps
Standard : PAL
Color space : YUV
Chroma subsampling : 4:2:0
Bit depth : 8 bits
Scan type : Progressive
Scan order : Top Field First
Compression mode : Lossy
Bits/(Pixel*Frame) : 0.360
Stream size : 653 MiB (93%)
Writing library : (c) 1998-2011 Womble Multimedia, Inc. / MPEG Video Wizard DVD 5.0.1.100 (03/2011) / May 27 2011
Audio #192
ID : 192 (0xC0)
Format : MPEG Audio
Format version : Version 1
Format profile : Layer 2
Duration : 24mn 27s
Bit rate mode : Constant
Bit rate : 192 Kbps
Channel(s) : 2 channels
Sampling rate : 48.0 KHz
Compression mode : Lossy
Stream size : 33.6 MiB (5%)

Скриншоты

Other forum [Profile] [PM]
Similar theme
Forum Topic Author Torrent Replies Last Post
./templates/default/images/folder_dl.gif Разное Антонов Олег Борисович - Олег Борисович Антонов - Культура, Интернет и будущее [2014, PDF] OlegAlm
1 | 0

1 | 4482

4

2014-03-26 10:57
Dracula Latest
Display posts from previous:    
Reply to topic

The time now is: Today 13:15

All times are GMT + 3 Hours



You cannot post new topics in this forum
You cannot reply to topics in this forum
You cannot edit your posts in this forum
You cannot delete your posts in this forum
You cannot vote in polls in this forum
You cannot attach files in this forum
You cannot download files in this forum