Today is a free download without charge Download

Джесси Стоун / Правосудие Стоуна:Никакого раскаяния / Jesse Stone: No Remorse (Роберт Хармон / Robert Harmon) [2010, США, криминал, детектив, WEB-DL 720p] DVO (Elrom) + Sub Eng + Original Fre

Reply to topic
 
Author
Message

Omen ®

Longevity: 8 years 5 months

Posts: 181087

Торрент-статистика

Post 25-Jan-2013 15:08

[Quote]

Джесси Стоун / Правосудие Стоуна:Никакого раскаяния / Jesse Stone: No Remorse
Страна: США
Жанр: криминал, детектив
Год выпуска: 2010
Продолжительность: 01:25:38
Перевод: Профессиональный (двухголосый закадровый) Студия Elrom
Cубтитры: английские
Оригинальная аудиодорожка: английский
Режиссер: Роберт Хармон / Robert Harmon
В ролях: Том Селлек, Кэти Бейкер, Кол Саддаф, Стивен МакХэтти, Криста Аллен, Уильям Сэдлер, Мэй Уитман, Тодд Хофли, Сол Рубинек, Уильям Дивэйн
Описание: Детектив по роману Роберта Паркера из серии фильмов о крутом копе из убойного отдела Джесси Стоуне, начатой лентой 2005 года. В этом фильме полицейский Джесси Стоун берется за расследование серий убийств, которое приводит его к противостоянию с главарем местной мафии...

Сэмпл: http://multi-up.com/821699
Тип релиза: WEB-DL 720p
Контейнер: MKV
Видео: MPEG-4 AVC, 1280x718, 3969 кбит/сек, 23.976 fps
Аудио: 48 kHz, AC3 Dolby Digital, 2/0 (L,R) ch, ~192 kbps DVO Студия Elrom
Аудио 2: 48 kHz, AC3 Dolby Digital, 3/2 (L,C,R,l,r) + LFE ch, ~384 kbps original
Формат субтитров: softsub (SRT)

MediaInfo

ДЖЕССИ СТОУН\2010.ДЖЕССИ СТОУН-НИКАКОГО РАСКАЯНИЯ (DVO).720p.WEB-DL.DD5.1.H.264-lord_i_74.mkv
Формат : Matroska
Версия формата : Version 2
Размер файла : 2,77 Гбайт
Продолжительность : 1 ч. 25 м.
Общий поток : 4638 Кбит/сек
Дата кодирования : UTC 2013-01-17 14:38:41
Программа кодирования : mkvmerge v5.0.1 ('Es ist Sommer') built on Oct 9 2011 11:55:43
Библиотека кодирования : libebml v1.2.2 + libmatroska v1.3.0
Видео
Идентификатор : 1
Формат : AVC
Формат/Информация : Advanced Video Codec
Профиль формата : [email protected]
Параметр CABAC формата : Нет
Параметр ReFrames формата : 2 кадра
Идентификатор кодека : V_MPEG4/ISO/AVC
Продолжительность : 1 ч. 25 м.
Битрейт : 3969 Кбит/сек
Ширина : 1280 пикс.
Высота : 718 пикс.
Соотношение сторон : 16:9
Частота кадров : 23,976 кадр/сек
Цветовое пространство : YUV
Подвыборка цветности : 4:2:0
Битовая глубина : 8 бит
Тип развёртки : Прогрессивная
Бит/(Пиксели*Кадры) : 0.180
Размер потока : 2,37 Гбайт (86%)
Заголовок : Jesse.Stone.No.Remorse.2010.720p.WEB-DL.DD5.1.H.264-BS
Язык : English
Основные цвета : BT.709-5, BT.1361, IEC 61966-2-4, SMPTE RP177
Характеристики трансфера : BT.709-5, BT.1361
Коэффициенты матрицы : BT.709-5, BT.1361, IEC 61966-2-4 709, SMPTE RP177
Аудио #1
Идентификатор : 2
Формат : AC-3
Формат/Информация : Audio Coding 3
Расширение режима : CM (complete main)
Идентификатор кодека : A_AC3
Продолжительность : 1 ч. 25 м.
Вид битрейта : Постоянный
Битрейт : 192 Кбит/сек
Каналы : 2 канала
Расположение каналов : Front: L R
Частота : 48,0 КГц
Битовая глубина : 16 бит
Метод сжатия : С потерями
Размер потока : 118 Мбайт (4%)
Заголовок : DVO Студия Elrom
Язык : Russian
Аудио #2
Идентификатор : 3
Формат : AC-3
Формат/Информация : Audio Coding 3
Расширение режима : CM (complete main)
Идентификатор кодека : A_AC3
Продолжительность : 1 ч. 25 м.
Вид битрейта : Постоянный
Битрейт : 384 Кбит/сек
Каналы : 6 каналов
Расположение каналов : Front: L C R, Side: L R, LFE
Частота : 48,0 КГц
Битовая глубина : 16 бит
Метод сжатия : С потерями
Размер потока : 235 Мбайт (8%)
Язык : English
Текст
Идентификатор : 4
Формат : UTF-8
Идентификатор кодека : S_TEXT/UTF8
Идентификатор кодека/Информация : UTF-8 Plain Text
Заголовок : sub SDH
Язык : English
Меню
00:00:00.000 : en:Chapter 1
00:08:46.000 : en:Chapter 2
00:13:32.000 : en:Chapter 3
00:20:24.000 : en:Chapter 4
00:27:58.000 : en:Chapter 5
00:35:14.000 : en:Chapter 6
00:41:51.000 : en:Chapter 7
00:49:23.000 : en:Chapter 8
00:55:16.000 : en:Chapter 9
01:02:40.000 : en:Chapter 10
01:10:38.000 : en:Chapter 11
01:17:36.000 : en:Chapter 12

Скриншоты

Other forum [Profile] [PM]
Display posts from previous:    
Reply to topic

The time now is: Today 04:58

All times are GMT + 3 Hours



You cannot post new topics in this forum
You cannot reply to topics in this forum
You cannot edit your posts in this forum
You cannot delete your posts in this forum
You cannot vote in polls in this forum
You cannot attach files in this forum
You cannot download files in this forum