Today is a free download without charge Download

Кухня / Серии: 1-5 из 20 (Дмитрий Дьяченко) [2012 г., Комедия, DVB] [СТС +2] [85°E Horizons 2 & Intelsat 15]

Reply to topic
 
Author
Message

Omen ®

Longevity: 8 years 11 months

Posts: 181086

Торрент-статистика

Post 25-Jan-2013 11:00

[Quote]

Кухня (1-5 серии из 20)
(Канал "СТС")

Год выпуска: 2012
Производство: KEYSTONE PRODUCTION по заказу Yellow, Black and White
Жанр: Комедия
Продолжительность: ~00:24:00 серия
Субтитры: Нет
Режиссёр: Дмитрий ДьяченкоВ ролях: Дмитрий Назаров, Марк Богатырев, Дмитрий Нагиев, Юлия Такшина, Елена Подкаминская, Марина Могилевская, Сергей Лавыгин, Виктор Хориняк, Никита Тарасов, Сергей Епишев, Жаныл Асанбекова, Ольга Кузьмина, Екатерина Кузнецова, Михаил Тарабукин, Елена Чернявская, Мария Горбань, Константин Чепурин и др. Что такое кухня? Для многих это лишь место, где жарится мясо, сверкают ножи и побулькивает соус. На самом же деле, кухня — это хранилище свежих секретов, месторождение острых интриг, пышных сплетен и, конечно же, идеальная лаборатория для создания рецепта любви. Телеканал СТС приглашает тебя внимательней рассмотреть это любопытное место и приоткрыть кухонные занавески над жизнью, происходящей за массивными дверями одного престижного московского ресторана… Максим Лавров (актер Марк Богатырев) одержим мечтой: стать знаменитым шеф-поваром, для этого он отправляется в Москву, чтобы устроиться в известнейший и популярный ресторан, хозяином которого является звезда шоу-бизнеса. Кухней этого ресторана заведует прославленный шеф-повар Виктор Баринов (актер Дмитрий Назаров). Он знает сильные стороны своего таланта и гастрономические слабости своих едоков, поэтому царствует на кулинарном пьедестале с высоко поднятой головой. Оборотная сторона этого идеального образа — злоупотребление алкоголем, страсть к азартным играм и невыносимый характер. В гневе Баринов страшен, в загуле — неукротим. Отвязную эпикурейскую натуру кулинарного гуру готовы терпеть многие, но только не арт-директор ресторана Виктория Гончарова.
Молодая успешная карьеристка с ледяным сердцем и деловым подходом к личной жизни — Виктория (актриса Елена Подкаминская) готова пойти по головам, чтобы только обеспечить столичному ресторану славу лучшего места в городе. Личное счастье она понимает как личную свободу, помноженную на личные успехи. И никаких мужчин — они так отвлекают… В общем, Максим оказывается в центре непрекращающейся дуэли между Шеф-поваром и Арт-директором. Для первого главное в ресторане — это прекрасно приготовленная еда на его кухне. Для второй — сервис и атмосфера зала, которую создает она. Интересно, как сложится карьера Максима? Смотри новый сериал «Кухня» на СТС. Здесь бурлят горячие страсти и изысканные интриги в острой заправке из свежайшего юмора!
Качество видео: DVB (85°E Horizons 2 & Intelsat 15)
Формат видео: MPEG
Видео: MPEG4 Video (H264) 720x576 (4:3) 25.00fps ~3578 Kbps, 0.345 bit/pixel
Аудио: MPEG Audio 48000Hz stereo 256 Kbps

MediaInfo

01_КУХНЯ_DVB_''СТС''_BY_}{oтт@бь)ч.ts
General
ID : 1 (0x1)
Complete name : D:\КУХНЯ_DVB_''СТС''_BY_}{oтт@бь)ч\01_КУХНЯ_DVB_''СТС''_BY_}{oтт@бь)ч.ts
Format : MPEG-TS
File size : 733 MiB
Duration : 25mn 23s
Overall bit rate mode : Variable
Overall bit rate : 4 038 Kbps
Video
ID : 1802 (0x70A)
Menu ID : 1 (0x1)
Format : AVC
Format/Info : Advanced Video Codec
Format profile : [email protected]
Format settings, CABAC : Yes
Format settings, ReFrames : 3 frames
Codec ID : 27
Duration : 25mn 23s
Bit rate : 3 580 Kbps
Width : 720 pixels
Height : 576 pixels
Display aspect ratio : 4:3
Frame rate : 25.000 fps
Standard : Component
Color space : YUV
Chroma subsampling : 4:2:0
Bit depth : 8 bits
Scan type : Interlaced
Scan order : Top Field First
Bits/(Pixel*Frame) : 0.345
Stream size : 650 MiB (89%)
Color primaries : BT.601 PAL
Transfer characteristics : BT.470 System B, BT.470 System G
Matrix coefficients : BT.601
Audio
ID : 2802 (0xAF2)
Menu ID : 1 (0x1)
Format : MPEG Audio
Format version : Version 1
Format profile : Layer 2
Codec ID : 3
Duration : 25mn 23s
Bit rate mode : Constant
Bit rate : 256 Kbps
Channel(s) : 2 channels
Sampling rate : 48.0 KHz
Compression mode : Lossy
Stream size : 46.5 MiB (6%)
Language : English
Other forum [Profile] [PM]
Display posts from previous:    
Reply to topic

The time now is: Today 10:16

All times are GMT + 3 Hours



You cannot post new topics in this forum
You cannot reply to topics in this forum
You cannot edit your posts in this forum
You cannot delete your posts in this forum
You cannot vote in polls in this forum
You cannot attach files in this forum
You cannot download files in this forum