Today is a free download without charge Download

Джесси Стоун / Правосудие Стоуна: Резкое изменение / Jesse Stone: Sea Change (Роберт Хармон / Robert Harmon) [2007, США, триллер, драма, криминал, детектив, WEB-DL 720p] MVO (ОРТ) + Sub Eng + Original Eng

Reply to topic
 
Author
Message

Omen ®

Longevity: 8 years 5 months

Posts: 181087

Торрент-статистика

Post 25-Jan-2013 02:44

[Quote]

Джесси Стоун / Правосудие Стоуна: Резкое изменение / Jesse Stone: Sea Change
Страна: США
Жанр: триллер, драма, криминал, детектив
Год выпуска: 2007
Продолжительность: 01:28:29
Перевод: Профессиональный (многоголосый закадровый) ОРТ
Cубтитры: английские
Оригинальная аудиодорожка: английский
Режиссер: Роберт Хармон / Robert Harmon
В ролях: Том Селлек, Кэти Бейкер, Кол Саддаф, Ребекка Пиджон, Шон Янг, Мика Бурем, Стивен МакХэтти, Уильям Сэдлер, Джеймс Гэммон, Найджел Беннетт
Описание: Из-за ухудшения отношений с бывшей женой, шеф полиции провинциального городка Парадайз Джесси Стоун снова начинает прикладываться к бутылке. Чтобы побороть пагубную страсть, Джесси решает с головой окунуться в работу.
Он берется за нераскрытое убийство кассира, совершенное во время ограбления банка. Однако трудовое рвение Джесси вовлекает его в конфликт с муниципалитетом, который позиционирует Парадайз как спокойный и безопасный морской курорт…


Сэмпл: http://multi-up.com/821503
Тип релиза: WEB-DL 720p
Контейнер: MKV
Видео: MPEG-4 AVC, 1280x720, 3899 кбит/сек, 23.976 fps
Аудио: 48 kHz, AC3 Dolby Digital, 2/0 (L,R) ch, ~192 kbps MVO ОРТ
Аудио 2: 48 kHz, AC3 Dolby Digital, 3/2 (L,C,R,l,r) + LFE ch, ~384 kbps original
Формат субтитров: softsub (SRT)

MediaInfo

ДЖЕССИ СТОУН\2007.ДЖЕССИ СТОУН-РЕЗКОЕ ИЗМЕНЕНИЕ (MVO).720p.WEB-DL.DD5.1.H.264-lord_I_74.mkv
Формат : Matroska
Версия формата : Version 2
Размер файла : 2,83 Гбайт
Продолжительность : 1 ч. 28 м.
Общий поток : 4566 Кбит/сек
Дата кодирования : UTC 2013-01-13 00:15:08
Программа кодирования : mkvmerge v5.0.1 ('Es ist Sommer') built on Oct 9 2011 11:55:43
Библиотека кодирования : libebml v1.2.2 + libmatroska v1.3.0
Видео
Идентификатор : 1
Формат : AVC
Формат/Информация : Advanced Video Codec
Профиль формата : [email protected]
Параметр CABAC формата : Нет
Параметр ReFrames формата : 2 кадра
Параметры GOP формата : M=2, N=25
Идентификатор кодека : V_MPEG4/ISO/AVC
Продолжительность : 1 ч. 28 м.
Битрейт : 3899 Кбит/сек
Ширина : 1280 пикс.
Высота : 720 пикс.
Соотношение сторон : 16:9
Частота кадров : 23,976 кадр/сек
Цветовое пространство : YUV
Подвыборка цветности : 4:2:0
Битовая глубина : 8 бит
Тип развёртки : Прогрессивная
Бит/(Пиксели*Кадры) : 0.176
Размер потока : 2,41 Гбайт (85%)
Заголовок : Jesse.Stone.Sea.Change.2007.720p.WEB-DL.DD5.1.H.264-BS
Язык : English
Основные цвета : BT.709-5, BT.1361, IEC 61966-2-4, SMPTE RP177
Характеристики трансфера : BT.709-5, BT.1361
Коэффициенты матрицы : BT.709-5, BT.1361, IEC 61966-2-4 709, SMPTE RP177
Аудио #1
Идентификатор : 2
Формат : AC-3
Формат/Информация : Audio Coding 3
Расширение режима : CM (complete main)
Идентификатор кодека : A_AC3
Продолжительность : 1 ч. 28 м.
Вид битрейта : Постоянный
Битрейт : 192 Кбит/сек
Каналы : 2 канала
Расположение каналов : Front: L R
Частота : 48,0 КГц
Битовая глубина : 16 бит
Метод сжатия : С потерями
Размер потока : 122 Мбайт (4%)
Заголовок : MVO ОРТ
Язык : Russian
Аудио #2
Идентификатор : 3
Формат : AC-3
Формат/Информация : Audio Coding 3
Расширение режима : CM (complete main)
Идентификатор кодека : A_AC3
Продолжительность : 1 ч. 28 м.
Вид битрейта : Постоянный
Битрейт : 384 Кбит/сек
Каналы : 6 каналов
Расположение каналов : Front: L C R, Side: L R, LFE
Частота : 48,0 КГц
Битовая глубина : 16 бит
Метод сжатия : С потерями
Размер потока : 243 Мбайт (8%)
Язык : English
Текст
Идентификатор : 4
Формат : UTF-8
Идентификатор кодека : S_TEXT/UTF8
Идентификатор кодека/Информация : UTF-8 Plain Text
Заголовок : SUB
Язык : English
Меню
00:00:00.000 : en:Chapter 1
00:07:28.000 : en:Chapter 2
00:19:30.000 : en:Chapter 3
00:29:04.000 : en:Chapter 4
00:36:16.000 : en:Chapter 5
00:43:47.000 : en:Chapter 6
00:48:16.000 : en:Chapter 7
01:00:40.000 : en:Chapter 8
01:06:10.000 : en:Chapter 9
01:11:48.000 : en:Chapter 10
01:14:11.000 : en:Chapter 11

Скриншоты

Other forum [Profile] [PM]
Display posts from previous:    
Reply to topic

The time now is: Today 12:41

All times are GMT + 3 Hours



You cannot post new topics in this forum
You cannot reply to topics in this forum
You cannot edit your posts in this forum
You cannot delete your posts in this forum
You cannot vote in polls in this forum
You cannot attach files in this forum
You cannot download files in this forum