Today is a free download without charge Download

Симона / S1m0ne (Эндрю Никкол / Andrew Niccol) [2002 г., Сатирическая комедия с элементами фантастики, HDTV 1080p] Dub + MVO + AVO (Ю. Живов) + Original (Eng) + Sub (Rus, Eng)

Reply to topic
 
Author
Message

Omen ®

Longevity: 8 years 5 months

Posts: 181087

Торрент-статистика

Post 25-Jan-2013 02:44

[Quote]

Симона / S1m0ne
Страна: США
Год выпуска: 2002
Продолжительность: 1:57:27
Жанр: Сатирическая комедия с элементами фантастики
Перевод 1: Профессиональный (дублированный)
Перевод 2: Профессиональный (многоголосый закадровый)
Перевод 3: Авторский (одноголосый закадровый)
Оригинальная дорожка: английская
Субтитры: русские, английские
Режиссер: Эндрю Никкол / Andrew Niccol
В ролях: Аль Пачино, Рэйчел Робертс, Вайнона Райдер, Джей Мор, Кэтрин Кинер, Ивэн Рэйчел Вуд, Бенжамин Салисбери, Дарнелл Уильямс, Джим Рэш, Рон Перкинс и другие
Описание: Для режиссёра Виктора Тарански (Аль Пачино) наступают тяжёлые времена. Взбалмошная актриса Никола (Вайнона Райдер) отказывается доигрывать роль в его новом фильме, ради которого он заложил всё своё имущество. Закончить фильм не представляется возможным, так как адвокаты Николы подадут в суд, если увидят хоть один фрагмент с её участием. Директор киностудии (и бывшая жена Тарански) Илейн разрывает с ним контракт, ссылаясь на неуступчивость и принципиальность режиссера, из-за которых кинозвёзды отказываются с ним работать, а последние картины провалились и не имели коммерческого успеха. Потерявший надежду Виктор встречает гениального, неизлечимо больного программиста Хэнка Алино, который завещает ему дело последних лет своей жизни — компьютерную программу, являющуюся первым совершенным виртуальным симулятором («S1mulation 0ne»). С помощью программы Тарански создает виртуальную актрису Симону (S1m0ne) и, практически не надеясь на успех, заканчивает и выпускает свой фильм с её участием.
Появление Симоны вызывает ажиотаж. Всех поражают актёрские данные девушки — программные средства позволили Виктору объединить в ней талант и внешность практически всех выдающихся актрис. Публику интригует феноменальная скрытность Симоны — она не появляется ни на одной презентации или светском рауте, редко даёт интервью, общаться с журналистами предпочитает через телемост или интернет. Виктор изо всех сил убеждает публику в реальном существовании актрисы, используя при этом как технические средства (смонтированные прямые включения, голограммы, фотомонтаж), так и подставных лиц. Апофеозом мистификации становится концерт Симоны на стотысячном стадионе в Лос-Анджелесе, после которого даже преследовавшие Виктора журналисты убеждаются в реальности актрисы.
Карьера Симоны в зените — она получает Оскар как лучшая актриса. Именно на церемонии Виктор понимает, что он сам практически растворился в виртуальном образе. Кроме того, существование Симоны угрожает личному счастью Виктора — втайне он надеется, что бывшая жена к нему вернется. Однако Илейн уверена, что между Виктором и Симоной роман, и не хочет им мешать. Поняв это, Виктор решает разрушить созданный им образ. Но срежиссированные им скандальные выходки Симоны только поднимают ей популярность. Тарански посещает могилу Хэнка и делится с покойным программистом своими страхами, где его внезапно озаряет гениально простая идея о возможности логичного окончания творческого и жизненного пути своего творения.
Виктор имитирует трагическую гибель Симоны, уничтожив с жёсткого диска все связанные с нею данные, и топит все цифровые носители в океане. Однако он попадает в тюрьму по обвинению в убийстве всенародной любимицы, где ему предъявляют реальные улики. Все попытки Виктора убедить полицию в том, что Симоны никогда не существовало, оборачиваются крахом. Ему верит только его не по возрасту развитая дочь Лейни. Проникнув в компьютер отца, она восстанавливает стёртые данные и «воскрешает» Симону. Жена и дочь убеждают Виктора в том, что не стоит пытаться навязать публике правду — она может этого не пережить. Историю с гибелью обыгрывают как удачный пиар-ход. У Симоны и Виктора рождается такой же виртуальный ребёнок. Публика ждёт продолжения… [Wiki]
Доп. информация: Выражаю особую благодарность пользователю под ником Softernet (http:///*spam*//forum/profile.php?mode=viewprofile&u=1198935) который устранил рассинхрон звука на всех дорожках, и более того, устранил все имеющиеся проблемы, связанные с некорректным воспроизведением фильма на железных плеерах Dune и не только. Дорожка с Русским дубляжом включена по умолчанию.
Качество: HDTV
Контейнер: MKV
Формат: H.264 (AVC)
Видео: 1920x1080, 16:9, 23,976 fps ~ 18,3 Mb/s
Аудио 1: [English] DTS 6.1, 48 Hz ~ 755 kbps
Аудио 2: [Russian] AC3 5.1, 48 Hz ~ 448 kbps - (Дубляж)
Аудио 3: [Russian] AC3 5.1, 48 Hz ~ 448 kbps - (Закадровый)
Аудио 4: [Russian] AC3 5.1, 48 Hz ~ 448 kbps - (Ю.Живов)

MediaInfo

Общее
Уникальный идентификатор : 231052315736290660845885635207566497907 (0xADD30EAF1F4C76E2811212A907289873)
Полное имя : ...\Симона (S1m0ne) [HDTV] [1080p] [RUS;ENG].mkv
Формат : Matroska
Версия формата : Version 4 / Version 2
Размер файла : 17,1 Гбайт
Продолжительность : 1 ч. 57 м.
Режим общего битрейта : Переменный
Общий поток : 20,8 Мбит/сек
Дата кодирования : UTC 2010-02-22 21:41:31
Программа кодирования : mkvmerge v5.9.0 ('On The Loose') built on Dec 9 2012 15:37:01
Библиотека кодирования : libebml v1.3.0 + libmatroska v1.4.0
Видео
Идентификатор : 1
Формат : AVC
Формат/Информация : Advanced Video Codec
Профиль формата : [email protected]
Параметр CABAC формата : Да
Параметр ReFrames формата : 4 кадра
Идентификатор кодека : V_MPEG4/ISO/AVC
Продолжительность : 1 ч. 57 м.
Вид битрейта : Переменный
Битрейт : 18,3 Мбит/сек
Максимальный битрейт : 40,0 Мбит/сек
Ширина : 1920 пикселей
Высота : 1080 пикселей
Соотношение сторон : 16:9
Режим частоты кадров : Постоянный
Частота кадров : 23,976 кадра/сек
Цветовое пространство : YUV
Субдискретизация насыщенности : 4:2:0
Битовая глубина : 8 бит
Тип развёртки : Прогрессивная
Бит/(Пиксели*Кадры) : 0.368
Размер потока : 15,0 Гбайт (88%)
Библиотека кодирования : x264 core 119
Настройки программы : cabac=1 / ref=4 / deblock=1:-3:-3 / analyse=0x3:0x113 / me=umh / subme=9 / psy=1 / psy_rd=1.00:0.25 / mixed_ref=1 / me_range=16 / chroma_me=1 / trellis=1 / 8x8dct=1 / cqm=0 / deadzone=6,6 / fast_pskip=1 / chroma_qp_offset=-4 / threads=6 / sliced_threads=0 / nr=0 / decimate=0 / interlaced=0 / bluray_compat=0 / constrained_intra=0 / bframes=3 / b_pyramid=2 / b_adapt=2 / b_bias=0 / direct=1 / weightb=1 / open_gop=0 / weightp=2 / keyint=250 / keyint_min=23 / scenecut=40 / intra_refresh=0 / rc_lookahead=40 / rc=crf / mbtree=1 / crf=16.0 / qcomp=0.80 / qpmin=0 / qpmax=69 / qpstep=4 / ip_ratio=1.10 / aq=1:0.5
Default : Да
Forced : Нет
Аудио #1
Идентификатор : 2
Формат : DTS
Формат/Информация : Digital Theater Systems
Профиль формата : ES
Режим : 16
Параметр Endianness формата : Big
Идентификатор кодека : A_DTS
Продолжительность : 1 ч. 57 м.
Вид битрейта : Постоянный
Битрейт : 755 Кбит/сек
Каналы : 7 каналов / 6 каналов
Расположение каналов : Front: L C R, Side: L R, Back: C, LFE / Front: L C R, Side: L R, LFE
Частота : 48,0 КГц
Битовая глубина : 24 бит
Метод сжатия : С потерями
Размер потока : 634 Мбайт (4%)
Язык : English
Default : Нет
Forced : Нет
Аудио #2
Идентификатор : 3
Формат : AC-3
Формат/Информация : Audio Coding 3
Расширение режима : CM (complete main)
Параметр Endianness формата : Big
Идентификатор кодека : A_AC3
Продолжительность : 1 ч. 57 м.
Вид битрейта : Постоянный
Битрейт : 448 Кбит/сек
Каналы : 6 каналов
Расположение каналов : Front: L C R, Side: L R, LFE
Частота : 48,0 КГц
Битовая глубина : 16 бит
Метод сжатия : С потерями
Размер потока : 377 Мбайт (2%)
Язык : Russian
Default : Да
Forced : Нет
Аудио #3
Идентификатор : 4
Формат : AC-3
Формат/Информация : Audio Coding 3
Расширение режима : CM (complete main)
Параметр Endianness формата : Big
Идентификатор кодека : A_AC3
Продолжительность : 1 ч. 57 м.
Вид битрейта : Постоянный
Битрейт : 448 Кбит/сек
Каналы : 6 каналов
Расположение каналов : Front: L C R, Side: L R, LFE
Частота : 48,0 КГц
Битовая глубина : 16 бит
Метод сжатия : С потерями
Размер потока : 377 Мбайт (2%)
Язык : Russian
Default : Нет
Forced : Нет
Аудио #4
Идентификатор : 5
Формат : AC-3
Формат/Информация : Audio Coding 3
Расширение режима : CM (complete main)
Параметр Endianness формата : Big
Идентификатор кодека : A_AC3
Продолжительность : 1 ч. 57 м.
Вид битрейта : Постоянный
Битрейт : 448 Кбит/сек
Каналы : 6 каналов
Расположение каналов : Front: L C R, Side: L R, LFE
Частота : 48,0 КГц
Битовая глубина : 16 бит
Метод сжатия : С потерями
Размер потока : 377 Мбайт (2%)
Язык : Russian
Default : Нет
Forced : Нет
Текст #1
Идентификатор : 6
Формат : UTF-8
Идентификатор кодека : S_TEXT/UTF8
Идентификатор кодека/Информация : UTF-8 Plain Text
Язык : English
Default : Нет
Forced : Нет
Текст #2
Идентификатор : 7
Формат : UTF-8
Идентификатор кодека : S_TEXT/UTF8
Идентификатор кодека/Информация : UTF-8 Plain Text
Язык : Russian
Default : Нет
Forced : Нет

Скриншоты



Рецензия

38-летний новозеландец Эндрю Никкол, который ранее язвительно и хлёстко высказался в качестве сценариста ленты «Шоу Трумена» Питера Уира по поводу перспектив создания абсолютно иллюзорной реальности, выдаваемой за самую настоящую, в своей второй режиссёрской работе «Симона» идею сотворения из компьютерной девушки-модели одной из голливудских кинозвёзд подал, несомненно, в сатирическом ключе. Не случайно, что и рекламный слоган «Звезда… создана» обыгрывает название трижды поставленной в Голливуде картины «Звезда родилась». И, между прочим, во время съёмок «Симоны» канадская фотомодель Рейчел Робертс должна была, согласно контракту, скрывать ото всех собственное подлинное имя и выступать под псевдонимом Анна Грин (Green — в честь термина green screen, который обозначает кинематографический метод запечатления того, что фактически отсутствует в кадре), а в титрах оказалась в итоге упомянутой так же, как и героиня, то есть в качестве Симоны.
Однако следует сказать, что Никкол в «Симоне» в большей степени спародировал систему порождения киномифов на «фабрике грёз», нежели подвергнул сомнению сам принцип компьютерно-генерированного изображения, уже применявшийся в целом ряде фильмов. И его лента, разумеется, слабо прошла в прокате, поскольку не содержала, в отличие от «Шоу Трумена», некоего «идентификационного момента» — зрители не могли сопереживать ни отчаявшемуся режиссёру Виктору Таранскому (его первое имя, безусловно, намекает на учёного Франкенштейна, который породил своё Создание), ни выдуманной им актрисе Симоне.
[Сергей Кудрявцев] [7/10]
Other forum [Profile] [PM]
Similar theme
Forum Topic Author Torrent Replies Last Post
./templates/default/images/folder_dl.gif Медицина и Здоровье Фёдор Симонов | Как восстановить зрение до 100% даже «запущенным очкарикам» за 1 месяц без операций и таблеток (2016) [PDF, FB2, RTF] }{@R0N
1 | 0

0 | 1294

11

2018-02-25 13:09
}{@R0N Latest
Display posts from previous:    
Reply to topic

The time now is: Today 22:47

All times are GMT + 3 Hours



You cannot post new topics in this forum
You cannot reply to topics in this forum
You cannot edit your posts in this forum
You cannot delete your posts in this forum
You cannot vote in polls in this forum
You cannot attach files in this forum
You cannot download files in this forum