Today is a free download without charge Download

Слова / The Words (Брайан Клагман / Brian Klugman, Ли Стернтал / Lee Sternthal) [2012, драма, мелодрама, BDRip 1080p] DUB + VO (edos1965) + Sub (2xRus, Eng) + Original Eng

Reply to topic
 
Author
Message

Omen ®

Longevity: 8 years 5 months

Posts: 181087

Торрент-статистика

Post 25-Jan-2013 02:44

[Quote]

Слова / The Words
Студия: США
Жанр: драма, мелодрама
Год выпуска: 2012
Продолжительность: 01:42:41
Перевод 1: Профессиональный (дублированный)
Перевод 2: Одноголосый закадровый edos1965
Cубтитры: русские (2 вида), английские
Оригинальная аудиодорожка: английский
-
Режиссер: Брайан Клагман / Brian Klugman, Ли Стернтал / Lee Sternthal
В ролях: Брэдли Купер, Джереми Айронс, Оливия Уайлд, Зои Салдана, Деннис Куэйд, Брайан Клагман, Джон Ханна, Вито Филлипо, Майкл Мак Кин, Люсинда Дэвис
-
Описание: Молодой писатель Рори Дженсен долгое время безуспешно пытался добиться признания, но его творчество не вызывало интереса у издателей. Однажды Рори случайно нашел очень старую рукопись. Прочитав пожелтевшие от времени листки, он понял, что нашел настоящее сокровище. Перепечатав рукопись, Рори отправил её издателю. Книга вышла огромным тиражом, а начинающий писатель получил внушительный гонорар.
Но прошлое возвращается и преследует его, а популярность продолжает расти... Какая расплата ждет писателя?

Тип релиза: BDRip 1080p
Контейнер: MKV
Видео: H264 / NTSC 16:9 / 1920x1036 (1,85:1) / 14336 kbps / 23,976 fps / 0.301 bit/pixel / [email protected]
Аудио 1: Russian / DTS / 48 kHz / 5.1 Ch / 755 kbps / 24 bit / DUB
Аудио 2: Russian / AC3 / 48 kHz / 5.1 Ch / 448 kbps / 16 bit / VO
Аудио 3: English / DTS / 48 kHz / 5.1 Ch / 1510 kbps / 16 bit / Original
Формат субтитров: softsub (SRT)
Навигация по главам: есть

MediaInfo

Общее
Уникальный идентификатор : 203062928805213010859562375706331983182 (0x98C47F5D5883F24CB4112CC78A062D4E)
Полное имя : C:\The Words.2012.BDRip.1080p.mkv
Формат : Matroska
Версия формата : Version 4 / Version 2
Размер файла : 12,2 Гбайт
Продолжительность : 1 ч. 42 м.
Общий поток : 17,0 Мбит/сек
Дата кодирования : UTC 2010-02-22 21:41:31
Программа кодирования : mkvmerge v5.9.0 ('On The Loose') built on Dec 9 2012 15:37:01
Библиотека кодирования : libebml v1.3.0 + libmatroska v1.4.0
Видео
Идентификатор : 1
Формат : AVC
Формат/Информация : Advanced Video Codec
Профиль формата : [email protected]
Параметр CABAC формата : Да
Параметр ReFrames формата : 4 кадра
Идентификатор кодека : V_MPEG4/ISO/AVC
Продолжительность : 1 ч. 42 м.
Битрейт : 14,3 Мбит/сек
Ширина : 1920 пикселей
Высота : 1036 пикселей
Соотношение сторон : 1,85:1
Режим частоты кадров : Постоянный
Частота кадров : 23,976 кадра/сек
Цветовое пространство : YUV
Субдискретизация насыщенности : 4:2:0
Битовая глубина : 8 бит
Тип развёртки : Прогрессивная
Бит/(Пиксели*Кадры) : 0.301
Размер потока : 10,0 Гбайт (82%)
Библиотека кодирования : x264 core 129 r2230 1cffe9f
Настройки программы : cabac=1 / ref=4 / deblock=1:-2:-2 / analyse=0x3:0x113 / me=umh / subme=11 / psy=1 / psy_rd=1.02:0.12 / mixed_ref=1 / me_range=48 / chroma_me=1 / trellis=2 / 8x8dct=1 / cqm=0 / deadzone=21,11 / fast_pskip=0 / chroma_qp_offset=-3 / threads=36 / lookahead_threads=6 / sliced_threads=0 / slices=4 / nr=0 / decimate=1 / interlaced=0 / bluray_compat=0 / constrained_intra=0 / bframes=8 / b_pyramid=2 / b_adapt=2 / b_bias=0 / direct=3 / weightb=1 / open_gop=0 / weightp=2 / keyint=240 / keyint_min=23 / scenecut=40 / intra_refresh=0 / rc_lookahead=240 / rc=2pass / mbtree=1 / bitrate=14336 / ratetol=1.0 / qcomp=0.60 / qpmin=0 / qpmax=69 / qpstep=4 / cplxblur=20.0 / qblur=0.5 / vbv_maxrate=50000 / vbv_bufsize=40000 / nal_hrd=none / ip_ratio=1.40 / aq=1:1.00
Язык : English
Default : Да
Forced : Нет
Основные цвета : BT.709
Характеристики трансфера : BT.709
Коэффициенты матрицы : BT.709
Аудио #1
Идентификатор : 2
Формат : DTS
Формат/Информация : Digital Theater Systems
Идентификатор кодека : A_DTS
Продолжительность : 1 ч. 42 м.
Вид битрейта : Постоянный
Битрейт : 755 Кбит/сек
Каналы : 6 каналов
Расположение каналов : Front: L C R, Side: L R, LFE
Частота : 48,0 КГц
Битовая глубина : 24 бит
Метод сжатия : С потерями
Размер потока : 554 Мбайт (4%)
Заголовок : DUB
Язык : Russian
Default : Да
Forced : Нет
Аудио #2
Идентификатор : 3
Формат : AC-3
Формат/Информация : Audio Coding 3
Расширение режима : CM (complete main)
Параметр Endianness формата : Big
Идентификатор кодека : A_AC3
Продолжительность : 1 ч. 42 м.
Вид битрейта : Постоянный
Битрейт : 448 Кбит/сек
Каналы : 6 каналов
Расположение каналов : Front: L C R, Side: L R, LFE
Частота : 48,0 КГц
Битовая глубина : 16 бит
Метод сжатия : С потерями
Размер потока : 329 Мбайт (3%)
Заголовок : edos1965
Язык : Russian
Default : Нет
Forced : Нет
Аудио #3
Идентификатор : 4
Формат : DTS
Формат/Информация : Digital Theater Systems
Идентификатор кодека : A_DTS
Продолжительность : 1 ч. 42 м.
Вид битрейта : Постоянный
Битрейт : 1510 Кбит/сек
Каналы : 6 каналов
Расположение каналов : Front: L C R, Side: L R, LFE
Частота : 48,0 КГц
Битовая глубина : 16 бит
Метод сжатия : С потерями
Размер потока : 1,08 Гбайт (9%)
Заголовок : Original
Язык : English
Default : Нет
Forced : Нет
Текст #1
Идентификатор : 5
Формат : UTF-8
Идентификатор кодека : S_TEXT/UTF8
Идентификатор кодека/Информация : UTF-8 Plain Text
Заголовок : RUS
Язык : Russian
Default : Нет
Forced : Нет
Текст #2
Идентификатор : 6
Формат : UTF-8
Идентификатор кодека : S_TEXT/UTF8
Идентификатор кодека/Информация : UTF-8 Plain Text
Заголовок : RUS
Язык : Russian
Default : Нет
Forced : Нет
Текст #3
Идентификатор : 7
Формат : UTF-8
Идентификатор кодека : S_TEXT/UTF8
Идентификатор кодека/Информация : UTF-8 Plain Text
Заголовок : Original
Язык : English
Default : Нет
Forced : Нет
Меню
00:00:00.000 : en:CHAPTER01
00:03:57.988 : en:CHAPTER02
00:08:39.144 : en:CHAPTER03
00:14:33.456 : en:CHAPTER04
00:19:25.623 : en:CHAPTER05
00:25:23.981 : en:CHAPTER06
00:31:36.228 : en:CHAPTER07
00:34:43.164 : en:CHAPTER08
00:41:16.724 : en:CHAPTER09
00:45:40.780 : en:CHAPTER10
00:50:32.696 : en:CHAPTER11
00:56:45.569 : en:CHAPTER12
01:04:45.256 : en:CHAPTER13
01:11:44.050 : en:CHAPTER14
01:19:55.916 : en:CHAPTER15
01:28:32.557 : en:CHAPTER16

Скриншоты

Other forum [Profile] [PM]
Similar theme
Forum Topic Author Torrent Replies Last Post
./templates/default/images/folder_dl.gif Техническая и научно-популярная литература Л.П. Крайзмер | Словарь радиолюбителя [1972] [PDF] UndegraundMen
1 | 0

0 | 710

0

2013-03-04 22:21
UndegraundMen Latest
./templates/default/images/folder_dl.gif Техническая и научно-популярная литература Елена Брунова | Англо-русский учебный словарь по технологиям сетей передачи данных [2009] [FB2] UndegraundMen
1 | 0

0 | 858

7

2013-08-17 11:01
UndegraundMen Latest
Display posts from previous:    
Reply to topic

The time now is: Today 23:36

All times are GMT + 3 Hours



You cannot post new topics in this forum
You cannot reply to topics in this forum
You cannot edit your posts in this forum
You cannot delete your posts in this forum
You cannot vote in polls in this forum
You cannot attach files in this forum
You cannot download files in this forum