Сегодня идет свободное скачивание без начисления Download

В моей смерти прошу винить Клаву К (1975) [H.264] DVDRip

Ответить на тему
 
Автор
Сообщение

Omen ®

Стаж: 6 лет 1 месяц

Сообщений: 184308

Торрент-статистика

Пост 25-Янв-2013 01:48

[Цитировать]

-В моей смерти прошу винить Клаву К (1975) DVDRip- Русское название: В моей смерти прошу винить Клаву К
Год выпуска: 1975
Жанр: Драма, Мелодрама
Описание фильма:
Когда Сереже было всего четыре года, он влюбился по-настоящему, серьезно и на всю жизнь. Избранницей его сердца стала девочка Клава. С самого детства Сережа, как мог, ухаживал за своей возлюбленной: дарил ей все свои фломастеры, мелки, угощал мороженым в кафе, во время болезни приходил проведывать, всячески поддерживал в трудных ситуациях и ни разу не посмотрел на другую девочку. И вот в пятнадцать лет Клава влюбилась…. Но не в Сергея…. И тогда безнадежно влюбленный парень решил покончить жизнь самоубийством…
Режиссер: Николай Лебедев, Эрнест Ясан
Актеры: Ольга Волкова, Александр Анисимов, Олег Ефремов, Владимир Шевельков, Надежда Горшкова, Лариса Удовиченко, Вениамин Смехов, Любовь Малиновская, Ольга Озерецковская, Любовь Тищенко, Андрей Мусатов, Наталья Журавлева, Антон Гранат, Елена Хопшоносова, Максим Ясан, Виктор Костецкий, Владимир Сидоров, Любовь Полищук, Валентина Панина
Продолжительность: 01:11:26

Видеокодек: MPEG-4 AVC/H.264
Битрейт видео: ~2051 Кбит/сек
Размер кадра: 720 х 384
Качество видео: DVDRip
Аудиокодек: AC3 2.0
Битрейт аудио: 448 Кбит/сек

MediaInfo

Общее
Уникальный идентификатор : 173427372285504845410433721934682850836 (0x8278E59E4289DF8AAB655D2D64590614)
Полное имя : G:\_Reliz\V moei smerti proshu vinit' Klavu K.1979.DVDRip-AVC.h264.almikl.mkv
Формат : Matroska
Версия формата : Version 2
Размер файла : 1,25 Гбайт
Продолжительность : 1 ч. 11 м.
Общий поток : 2501 Кбит/сек
Дата кодирования : UTC 2013-01-23 07:00:39
Программа кодирования : mkvmerge v5.8.0 ('No Sleep / Pillow') built on Sep 2 2012 15:37:04
Библиотека кодирования : libebml v1.2.3 + libmatroska v1.3.0
Видео
Идентификатор : 1
Формат : AVC
Формат/Информация : Advanced Video Codec
Профиль формата : [url=mailto:[email protected]][email protected][/url]
Параметр CABAC формата : Да
Параметр ReFrames формата : 6 кадров
Идентификатор кодека : V_MPEG4/ISO/AVC
Продолжительность : 1 ч. 11 м.
Битрейт : 2051 Кбит/сек
Ширина : 720 пикселей
Высота : 384 пикселя
Соотношение сторон : 1,85:1
Режим частоты кадров : Постоянный
Частота кадров : 25,000 кадров/сек
Цветовое пространство : YUV
Субдискретизация насыщенности : 4:2:0
Битовая глубина : 8 бит
Тип развёртки : Прогрессивная
Бит/(Пиксели*Кадры) : 0.297
Размер потока : 1024 Мбайт (80%)
Библиотека кодирования : x264 core 129 r2230 1cffe9f
Настройки программы : cabac=1 / ref=6 / deblock=1:-1:-1 / analyse=0x3:0x113 / me=umh / subme=10 / psy=1 / psy_rd=1.00:0.15 / mixed_ref=1 / me_range=32 / chroma_me=1 / trellis=2 / 8x8dct=1 / cqm=0 / deadzone=21,11 / fast_pskip=1 / chroma_qp_offset=-3 / threads=12 / lookahead_threads=2 / sliced_threads=0 / nr=0 / decimate=1 / interlaced=0 / bluray_compat=0 / constrained_intra=0 / bframes=10 / b_pyramid=2 / b_adapt=2 / b_bias=0 / direct=1 / weightb=1 / open_gop=0 / weightp=2 / keyint=250 / keyint_min=25 / scenecut=40 / intra_refresh=0 / rc_lookahead=40 / rc=2pass / mbtree=1 / bitrate=2051 / ratetol=1.0 / qcomp=0.60 / qpmin=10 / qpmax=51 / qpstep=4 / cplxblur=20.0 / qblur=0.5 / ip_ratio=1.40 / aq=1:1.00
Default : Да
Forced : Нет
Аудио
Идентификатор : 2
Формат : AC-3
Формат/Информация : Audio Coding 3
Расширение режима : CM (complete main)
Параметр Endianness формата : Big
Идентификатор кодека : A_AC3
Продолжительность : 1 ч. 11 м.
Вид битрейта : Постоянный
Битрейт : 448 Кбит/сек
Каналы : 2 канала
Расположение каналов : Front: L R
Частота : 48,0 КГц
Битовая глубина : 16 бит
Метод сжатия : С потерями
Размер потока : 229 Мбайт (18%)
Default : Да
Forced : Нет
Скриншоты:                    
Вне форума [Профиль] [ЛС]
Показать сообщения:    
Ответить на тему

Текущее время: Сегодня 17:13

Часовой пояс: GMT + 3



Вы не можете начинать темы
Вы не можете отвечать на сообщения
Вы не можете редактировать свои сообщения
Вы не можете удалять свои сообщения
Вы не можете голосовать в опросах
Вы не можете прикреплять файлы к сообщениям
Вы не можете скачивать файлы