Today is a free download without charge Download

Мёртвые / The Dead (Ховард Дж. Форд / Howard J. Ford, Джонатан Форд / Jonathan Ford) [2010, Великобритания, ужасы, BDRemux 1080p] AVO (Антон Алексеев) + VO (zamez) + Original Eng + Subs (Rus, Eng)

Reply to topic
 
Author
Message

Omen ®

Longevity: 8 years 5 months

Posts: 181087

Торрент-статистика

Post 24-Jan-2013 22:36

[Quote]

Мёртвые / The Dead «The Feeding Begins.» Год выпуска: 2010
Страна: Великобритания
Жанр: ужасы
Продолжительность: 01:44:54.282
Перевод 1: Авторский (одноголосый закадровый) Антон Алексеев
Перевод 2: Одноголосый закадровый Вячеслав zamez
Оригинальная аудиодорожка: Английская
Субтитры: Русские (femme), английские (полные)
Студия: Indelible Productions, Latitude Films
Режиссёр: Ховард Дж. Форд / Howard J. Ford, Джонатан Форд / Jonathan Ford
В ролях: Роб Фримен (лейтенант Брайен Мерфи), Принс Дэвид Осеи (сержант Дэниэл Дембеле), Дэвид Донто, Бен Кроу, Гленн Сэлведж, Дэн Морган, Джулиа Скотт-Расселл, Лаура Джейн Стефенс, John Dunton-Downer, Нельсон Э. Уорд и др.
Описание: Потерпев авиакатастрофу, но выжив, герой фильма лейтенант Брайан Мерфи не исчерпал запас «везения». На «черном континенте» его встретили неприветливо, и вскоре Мерфи узнал о причинах того, почему местные жители невеселы, а порой даже озлоблены. Виной всему - зомби, живые мертвецы, восстающие из могил и поедающие людей. С этими чудовищами и предстоит сразиться лейтенанту, на пару с Дэниелом Дембеле, единственным, кто помогает «белому человеку»…
  • Кинопоиск
  • IMDB
  • Blu-ray.com
  • Сэмпл
    Качество: BDRemux 1080p
    Контейнер: MKV
    Видео кодек: MPEG-4 AVC Video
    Аудио кодек: DTS Audio / DTS-HD Master Audio
    Видео: MPEG-4 AVC Video / 21447 kbps / 1920x1080p / 23,976 fps / 16:9 / High Profile 4.1
    Аудио 1: Русский / DTS Audio / 1536 kbps / 5.1 / 48 kHz / 16-bit (AVO Антон Алексеев)
    Аудио 2: Русский / DTS Audio / 1536 kbps / 5.1 / 48 kHz / 24-bit (VO Вячеслав zamez)
    Аудио 3: English / DTS-HD Master Audio / 2333 kbps / 5.1 / 48 kHz / 16-bit (DTS Core: 5.1 / 48 kHz / 1509 kbps / 16-bit) (Оригинал)
    Навигация по главам: да

Скриншот с названием фильма

MediaInfo

Z:\/*spam*/\Мёртвые (The Dead) 2010, Великобритания, ужасы, BDRemux 1080p GORENOISE.mkv
General
Unique ID : 186818908916362994831313208227108694153 (0x8C8C03599A456CFA97D97D12AE672889)
Complete name : Z:\/*spam*/\Мёртвые (The Dead) 2010, Великобритания, ужасы, BDRemux 1080p GORENOISE.mkv
Format : Matroska
Format version : Version 4 / Version 2
File size : 19.6 GiB
Duration : 1h 44mn
Overall bit rate mode : Variable
Overall bit rate : 26.8 Mbps
Movie name : GORENOISE
Encoded date : UTC 2013-01-24 10:05:46
Writing application : mkvmerge v6.0.0 ('Coming Up For Air') built on Jan 20 2013 09:52:00
Writing library : libebml v1.3.0 + libmatroska v1.4.0
Video #1
ID : 1
Format : AVC
Format/Info : Advanced Video Codec
Format profile : [email protected]
Format settings, CABAC : Yes
Format settings, ReFrames : 2 frames
Codec ID : V_MPEG4/ISO/AVC
Duration : 1h 44mn
Bit rate mode : Variable
Bit rate : 21.2 Mbps
Width : 1 920 pixels
Height : 1 080 pixels
Display aspect ratio : 16:9
Frame rate mode : Constant
Frame rate : 23.976 fps
Color space : YUV
Chroma subsampling : 4:2:0
Bit depth : 8 bits
Scan type : Progressive
Bits/(Pixel*Frame) : 0.427
Stream size : 15.5 GiB (79%)
Title : GORENOISE
Language : English
Default : Yes
Forced : No
Audio #2
ID : 2
Format : DTS
Format/Info : Digital Theater Systems
Codec ID : A_DTS
Duration : 1h 44mn
Bit rate mode : Constant
Bit rate : 1 510 Kbps
Channel(s) : 6 channels
Channel positions : Front: L C R, Side: L R, LFE
Sampling rate : 48.0 KHz
Bit depth : 16 bits
Compression mode : Lossy
Stream size : 1.11 GiB (6%)
Title : Авторский (одноголосый закадровый) Антон Алексеев
Language : Russian
Default : Yes
Forced : No
Audio #3
ID : 3
Format : DTS
Format/Info : Digital Theater Systems
Codec ID : A_DTS
Duration : 1h 44mn
Bit rate mode : Constant
Bit rate : 1 510 Kbps
Channel(s) : 6 channels
Channel positions : Front: L C R, Side: L R, LFE
Sampling rate : 48.0 KHz
Bit depth : 24 bits
Compression mode : Lossy
Stream size : 1.11 GiB (6%)
Title : Одноголосый закадровый Вячеслав zamez
Language : Russian
Default : No
Forced : No
Audio #4
ID : 4
Format : DTS
Format/Info : Digital Theater Systems
Format profile : MA / Core
Codec ID : A_DTS
Duration : 1h 44mn
Bit rate mode : Variable
Bit rate : 2 041 Kbps / 1 510 Kbps
Channel(s) : 6 channels
Channel positions : Front: L C R, Side: L R, LFE
Sampling rate : 48.0 KHz
Bit depth : 16 bits
Compression mode : Lossless / Lossy
Title : Оригинал
Language : English
Default : No
Forced : No
Text #5
ID : 5
Format : UTF-8
Codec ID : S_TEXT/UTF8
Codec ID/Info : UTF-8 Plain Text
Title : Полные
Language : Russian
Default : No
Forced : No
Text #6
ID : 6
Format : UTF-8
Codec ID : S_TEXT/UTF8
Codec ID/Info : UTF-8 Plain Text
Title : Полные
Language : English
Default : No
Forced : No
Menu
00:00:00.000 : en:00:00:00.000
00:05:16.274 : en:00:05:16.274
00:08:14.411 : en:00:08:14.411
00:11:48.582 : en:00:11:48.582
00:21:39.339 : en:00:21:39.339
00:26:58.826 : en:00:26:58.826
00:31:38.480 : en:00:31:38.480
00:34:59.847 : en:00:34:59.847
00:38:39.317 : en:00:38:39.317
00:41:14.389 : en:00:41:14.389
00:46:40.965 : en:00:46:40.965
00:49:43.981 : en:00:49:43.981
00:51:35.717 : en:00:51:35.717
00:57:45.336 : en:00:57:45.336
00:59:30.233 : en:00:59:30.233
01:01:09.875 : en:01:01:09.875
01:05:57.119 : en:01:05:57.119
01:14:14.199 : en:01:14:14.199
01:18:24.365 : en:01:18:24.365
01:21:11.617 : en:01:21:11.617
01:25:08.436 : en:01:25:08.436
01:27:16.021 : en:01:27:16.021
01:33:16.673 : en:01:33:16.673
01:36:41.045 : en:01:36:41.045
01:37:34.724 : en:01:37:34.724
01:39:57.115 : en:01:39:57.115
01:43:17.483 : en:01:43:17.483

Полноразмерные постеры

Other forum [Profile] [PM]
Display posts from previous:    
Reply to topic

The time now is: Today 03:32

All times are GMT + 3 Hours



You cannot post new topics in this forum
You cannot reply to topics in this forum
You cannot edit your posts in this forum
You cannot delete your posts in this forum
You cannot vote in polls in this forum
You cannot attach files in this forum
You cannot download files in this forum