Today is a free download without charge Download

David Bowie - Where Are We Now? [2013, rock, HDTV 1080i]

Reply to topic
 
Author
Message

Omen ®

Longevity: 8 years 3 months

Posts: 181087

Торрент-статистика

Post 24-Jan-2013 22:36

[Quote]

David Bowie - Where Are We Now?- Жанр: rock
Продолжительность: 00:04:05
Год выпуска: 2013
Качество: HDTV 1080i
Контейнер: TS
Видео кодек: H.264
Аудио кодек: AC3
Видео: H.264; 1920x1080; 7 119 Kbps ; 25.000 fps
Аудио: AC-3; 384 Kbps; 48.0 KHz; 6 ch

Отчёт MediaInfo

Complete name : David Bowie - Where Are We Now.tsFormat : MPEG-TSFile size : 231 MiBDuration : 4mn 5sOverall bit rate mode : VariableOverall bit rate : 7 897 Kbps
VideoID : 2020 (0x7E4)Menu ID : 202 (0xCA)Format : AVCFormat/Info : Advanced Video CodecFormat profile : [email protected] settings, CABAC : YesFormat settings, ReFrames : 4 framesCodec ID : 27Duration : 4mn 4sBit rate : 7 119 KbpsWidth : 1 920 pixelsHeight : 1 080 pixelsDisplay aspect ratio : 16:9Frame rate : 25.000 fpsColor space : YUVChroma subsampling : 4:2:0Bit depth : 8 bitsScan type : MBAFFBits/(Pixel*Frame) : 0.137Stream size : 208 MiB (90%)Color primaries : BT.709Transfer characteristics : BT.709Matrix coefficients : BT.709
AudioID : 2021 (0x7E5)Menu ID : 202 (0xCA)Format : AC-3Format/Info : Audio Coding 3Mode extension : CM (complete main)Format settings, Endianness : BigCodec ID : 6Duration : 4mn 4sBit rate mode : ConstantBit rate : 384 KbpsChannel(s) : 6 channelsChannel positions : Front: L C R, Side: L R, LFESampling rate : 48.0 KHzBit depth : 16 bitsCompression mode : LossyDelay relative to video : 28msStream size : 11.2 MiB (5%)Language : French

Скриншоты

Other forum [Profile] [PM]
Similar theme
Forum Topic Author Torrent Replies Last Post
./templates/default/images/folder_dl.gif Rock (rock) [WEB] David Bowie - Blackstar - 2016, FLAC (tracks), lossless Omen
0 | 1

0 | 1003

16

2016-01-01 15:34
Omen Latest
Display posts from previous:    
Reply to topic

The time now is: Today 22:36

All times are GMT + 3 Hours



You cannot post new topics in this forum
You cannot reply to topics in this forum
You cannot edit your posts in this forum
You cannot delete your posts in this forum
You cannot vote in polls in this forum
You cannot attach files in this forum
You cannot download files in this forum