Today is a free download without charge Download

The Wallflowers - Live From The Artists Den [2012, Alternative Rock, HDTV 1080i]

Reply to topic
 
Author
Message

Omen ®

Longevity: 8 years 4 months

Posts: 181087

Торрент-статистика

Post 24-Jan-2013 22:36

[Quote]

The Wallflowers
Live From The Artists Den
- Жанр: Alternative Rock
Продолжительность: 53:59
Год выпуска: 2012
Описание: Bimbo's 365 Club
San Francisco, CA
Recorded June 20, 2012
Broadcast on PBS TV on October 12, 2012
Jakob Dylan - vocals, guitar
Greg Richling - bass
Rami Jaffee - keyboards
Stuart Mathis - guitar
Jack Irons - drums
Setlist:
01 intro
02 Three Marlenas
03 The Devil's Waltz
04 interview
05 Hospital For Sinners
06 6th Avenue Heartache
07 Reboot The Mission
08 Sleepwalker
09 interview
10 Misfits And Lovers
11 Closer To You
12 Love Is A Country
13 One Headlight
14 The Difference
15 closing credits

Качество: HDTV 1080i
Контейнер: MKV
Видео кодек: MPEG2
Аудио кодек: AC3
Видео: 1920x1080, 10,3 mbps, 29,970 fps
Аудио: AC3, 384 kbps, 48 kHz, 6 ch
Аудио 2: MP2, 256 kbps, 48 kHz, 2 ch

Отчёт MediaInfo / BDInfo

ОбщееУникальный идентификатор : 217266490154107316343343916420135275733 (0xA37401018DF8D89B947BBC65E6124CD5)Полное имя : H:\CAPTURE\The Wallflowers - Live From The Artists Den [HDTV 1080i].mkvФормат : MatroskaВерсия формата : Version 4 / Version 2Размер файла : 4,21 ГбайтПродолжительность : 53 м.Режим общего битрейта : ПеременныйОбщий поток : 11,2 Мбит/секДата кодирования : UTC 2013-01-23 16:02:29Программа кодирования : mkvmerge v6.0.0 ('Coming Up For Air') built on Jan 20 2013 09:52:00Библиотека кодирования : libebml v1.3.0 + libmatroska v1.4.0
ВидеоИдентификатор : 1Формат : MPEG VideoВерсия формата : Version 2Профиль формата : [email protected]Параметр BVOP формата : НетПараметр матрицы формата : ВыборочнаяИдентификатор кодека : V_MPEG2Идентификатор кодека/Информация : MPEG 1 or 2 VideoПродолжительность : 53 м.Вид битрейта : ПеременныйБитрейт : 10,3 Мбит/секМаксимальный битрейт : 65,0 Мбит/секШирина : 1920 пикселейВысота : 1080 пикселейСоотношение сторон : 16:9Режим частоты кадров : ПостоянныйЧастота кадров : 29,970 кадров/секЦветовое пространство : YUVСубдискретизация насыщенности : 4:2:0Битовая глубина : 8 битТип развёртки : ЧересстрочнаяПорядок развёртки : Верхнее поле первоеМетод сжатия : С потерямиБит/(Пиксели*Кадры) : 0.166Размер потока : 3,89 Гбайт (92%)Язык : EnglishDefault : ДаForced : Нет
Аудио #1Идентификатор : 2Формат : AC-3Формат/Информация : Audio Coding 3Расширение режима : CM (complete main)Параметр Endianness формата : BigИдентификатор кодека : A_AC3Продолжительность : 53 м.Вид битрейта : ПостоянныйБитрейт : 384 Кбит/секКаналы : 6 каналовРасположение каналов : Front: L C R, Side: L R, LFEЧастота : 48,0 КГцБитовая глубина : 16 битМетод сжатия : С потерямиРазмер потока : 148 Мбайт (3%)Заголовок : AC3 6chЯзык : EnglishDefault : ДаForced : Нет
Аудио #2Идентификатор : 3Формат : MPEG AudioВерсия формата : Version 1Профиль формата : Layer 2Идентификатор кодека : A_MPEG/L2Идентификатор кодека/Подсказка : MP2Продолжительность : 53 м.Вид битрейта : ПостоянныйБитрейт : 256 Кбит/секКаналы : 2 каналаЧастота : 48,0 КГцМетод сжатия : С потерямиРазмер потока : 98,9 Мбайт (2%)Заголовок : MP2 2chЯзык : EnglishDefault : НетForced : Нет

Скриншоты

Other forum [Profile] [PM]
Display posts from previous:    
Reply to topic

The time now is: Today 08:49

All times are GMT + 3 Hours



You cannot post new topics in this forum
You cannot reply to topics in this forum
You cannot edit your posts in this forum
You cannot delete your posts in this forum
You cannot vote in polls in this forum
You cannot attach files in this forum
You cannot download files in this forum