Today is a free download without charge Download

Второй убойный (1 серия из 16) (2013) SATRip [Обновляемая]

Reply to topic
 
Author
Message

Omen ®

Longevity: 8 years 11 months

Posts: 181086

Торрент-статистика

Post 24-Jan-2013 20:56

[Quote]

-Второй убойный (1 серия из 16) (2013) SATRip- Русское название: Второй убойный
Год выпуска: 2013
Производство: Россия, Форвард-Фильм, Кинозавод
Жанр: Детектив, криминал
Режиссер: Святослав Власов
Актеры: Вадим Андреев, Алексей Матошин, Захар Ронжин, Сергей Быстрицкий, Сергей Ярмолюк, Юрий Ильин, Виталий Гашаков, Алексей Дайнеко, Юрий Чернов, Динара Примова, Геннадий Семёнов
Описание фильма:
Немолодой начальник убойного отдела Алексей Витаев пользуется у коллег заслуженной славой. Въедливый и педантичный, он раскрывает даже те преступления, на которых многие давно бы поставили крест. Но однажды Витаев перешёл дорогу крупному чиновнику. В связи с этим было принято решение отправить опера на пенсию, а на его место быстро нашли «достойную» замену в лице бестолкового зятя высокого начальства.
Неожиданно Витаева призвали обратно в строй - требовалось в кратчайшие сроки раскрыть дерзкое убийство. Несостоявшийся пенсионер блестяще справился со своей задачей. После этой истории руководство и создаёт под него Второй убойный отдел. В команду Витаеву прислали опытного, но сильно пьющего опера Андрея Самойлова и вундеркинда, вчерашнего выпускника академии МВД Сашу Зазвонова. Команда Витаева действует оперативно, сообща и легких путей не выбирает.
Так и повелось: Первому убойному достаются слава, награды и почести, а Второму убойному - грязная работа, бессонные ночи и чувство глубокого удовлетворения от раскрытия дел, которые вовек не распутали бы их коллеги из Первого убойного.

Продолжительность: ~ 00:45:00 серия
Качество видео: SATRip
Видеокодек: XviD
Битрейт видео: ~ 1500 Кбит/сек
Размер кадра: 720x400
Аудио: Русский, МР3, 2 ch, 128 Кбит/с

Внимание! Раздача ведётся путём добавления новых серий. Описание обновления торрента:

Внимание!
Раздача ведётся путём добавления новых серий; при каждом добавлении создётся новый торрент. Чтобы начать докачку новой серии, пользователям необходимо сделать следующее:
(1) остановить скачивание,
(2) удалить старый торрент у себя из клиента (старые серии удалять не надо),
(3) скачать новый торрент и запустить его у себя в клиенте вместо старого, при этом указать клиенту путь в старую папку куда и должно происходить скачивание новых серий.
Ваш клиент при этом должен произвести хеширование (проверку) старой папки (если не производит сам - помогите ему сделать это), и будет докачивать только те серии которых у вас ещё нет. Старые серии при этом не удаляются, а продолжают раздаваться!
Eсли вы уже удалили старые серии, то предотвратить повторную закачку старых серий можно, отжав галочку в соответсвующих местах при запуске нового торрента. По возможности, желательно не удалять старые серии как можно дольше чтобы релизёр не столько продолжал раздавать старые серии, а смог сконцентрироваться на новых.

MediaInfo

Код:
Общее
Полное имя                               : E:\Раздачи\Обновляемые\Второй убойный\Vtoroi.uboinyi.01.2013.SATRip.avi
Формат                                   : AVI
Формат/Информация                        : Audio Video Interleave
Размер файла                             : 545 Мбайт
Продолжительность                        : 46 м.
Общий поток                              : 1639 Кбит/сек
Библиотека кодирования                   : VirtualDub build 32706/release
Видео
Идентификатор                            : 0
Формат                                   : MPEG-4 Visual
Профиль формата                          : Advanced [email protected]
Параметр BVOP формата                    : 2
Параметр QPel формата                    : Нет
Параметр GMC формата                     : Без точки перехода
Параметр матрицы формата                 : Default (MPEG)
Идентификатор кодека                     : XVID
Идентификатор кодека/Подсказка           : XviD
Продолжительность                        : 46 м.
Битрейт                                  : 1501 Кбит/сек
Ширина                                   : 720 пикселей
Высота                                   : 400 пикселей
Соотношение сторон                       : 16:9
Частота кадров                           : 25,000 кадров/сек
Цветовое пространство                    : YUV
Субдискретизация насыщенности            : 4:2:0
Битовая глубина                          : 8 бит
Тип развёртки                            : Прогрессивная
Метод сжатия                             : С потерями
Бит/(Пиксели*Кадры)                      : 0.208
Размер потока                            : 499 Мбайт (92%)
Библиотека кодирования                   : XviD 1.2.1 (UTC 2008-12-04)
Аудио
Идентификатор                            : 1
Формат                                   : MPEG Audio
Версия формата                           : Version 1
Профиль формата                          : Layer 3
Режим                                    : Joint stereo
Расширение режима                        : MS Stereo
Идентификатор кодека                     : 55
Идентификатор кодека/Подсказка           : MP3
Продолжительность                        : 46 м.
Вид битрейта                             : Постоянный
Битрейт                                  : 128 Кбит/сек
Каналы                                   : 2 канала
Частота                                  : 48,0 КГц
Метод сжатия                             : С потерями
Размер потока                            : 42,6 Мбайт (8%)
Выравнивание                             : Разделение по промежуткам
Продолжительность промежутка             : 40  мс. (1,00 видеокадр)
Время предзагрузки промежутка            : 500  мс.
Скриншоты:
         
         -Время раздачи: 9.00 - 23.00 (по мере возможности...)
Other forum [Profile] [PM]
Display posts from previous:    
Reply to topic

The time now is: Today 12:32

All times are GMT + 3 Hours



You cannot post new topics in this forum
You cannot reply to topics in this forum
You cannot edit your posts in this forum
You cannot delete your posts in this forum
You cannot vote in polls in this forum
You cannot attach files in this forum
You cannot download files in this forum