Today is a free download without charge Download

Восьмидесятые-1 (Фёдор Стуков) [1-12 серий из 12] [2012, Россия, Комедия, мелодрама, SATRip]

Reply to topic
 
Author
Message

Meshanik ®

Gender:

Longevity: 9 years 4 months

Posts: 3866

Location: Los Angeles

Торрент-статистика

Post 24-Jan-2013 19:07

[Quote]

Восьмидесятые
«Как хорошо мы плохо жили!»
- Русское название: Восьмидесятые
Год выпуска: 2011
Страна: Россия
Жанр: Комедия, мелодрама
Продолжительность: 12 x ~00:25
Кол-во серий/сезонов: 1 Сезон, Серии 1-12 из 12
Перевод: Оригинальный
Субтитры: нет-Режиссер: Фёдор Стуков
Сценарий: Алексей Поляков, Максим Паршин, Вячеслав Муругов, ...
Продюсер: Вячеслав Муругов, Антон Зайцев, Мария Смирнова, ...
В ролях: Александр Якин, Александр Половцев, Мария Аронова, Александр Новицкий, Дмитрий Белоцерковский, Наталья Земцова, Анна Цуканова, Никита Ефремов, Роман Фомин, Анастасия Балякина, Леонид Громов, Юлия Сулес, Наталья Карпунина, Артур Ваха, Игорь Лагутин, Роман Маякин, Ирина Чипиженко, Елена Лебедева, Виктория Левкина-Описание фильма:
1986 год. Советский Союз на полном ходу несется к глобальным переменам: жизнь еще идет по-старому, но в воздухе уже чувствуется свобода. 18-летний Ваня тоже вовсю живет новой жизнью студента-второкурсника. Институт и общага, поездки на картошку и тайные квартирники, друзья и, конечно, любовь…
Новому поколению 80-х уже недостаточно получать 120 рублей на заводе, слушать отчеты с пленумов ЦК и Софию Ротару в телевизоре «Рекорд». Молодежь жадно впитывает отголоски западных ценностей, слушает запрещенные песни, знает слово «секс» и не хочет жить по-старому.
«Восьмидесятые» - история про один из самых интересных периодов жизни нашей страны, где меняющиеся исторические реалии – не просто фон для сюжета. Глобальные перемены отражаются как в бытовых мелочах, так и отношениях героев, которые, как и в любую эпоху, хотят любить и радоваться жизни.
Кто-то вспомнит югославские гарнитуры, чеканки на стенах и колбасу по 2.20, кто-то увидит все это впервые. Но для всех это будет лишь повод улыбнуться и сказать: «Как хорошо мы плохо жили!»- -Качество видео: SATRip
Видеокодек: Xvid
Битрейт видео: ~1400 kbps avg
Размер кадра: 704x400
Аудиокодек: MP3
Битрейт аудио: 128.00 kbps avg
-

MediaInfo

Общее
Полное имя : D:\Сериалы\Восьмидесятые\Vosmidesjatye.01.2012.SATRip.avi
Формат : AVI
Формат/Информация : Audio Video Interleave
Размер файла : 278 Мбайт
Продолжительность : 24 м.
Общий поток : 1566 Кбит/сек
Программа кодирования : VirtualDubMod 1.5.10.3 | www.virtualdub-fr.org || (build 2550/release)
Библиотека кодирования : VirtualDubMod build 2550/release
Видео
Идентификатор : 0
Формат : MPEG-4 Visual
Профиль формата : Advanced [email protected]
Параметр BVOP формата : 2
Параметр QPel формата : Нет
Параметр GMC формата : Без точки перехода
Параметр матрицы формата : Default (MPEG)
Режим смешивания : Сжатый битовый поток
Идентификатор кодека : XVID
Идентификатор кодека/Подсказка : XviD
Продолжительность : 24 м.
Битрейт : 1429 Кбит/сек
Ширина : 704 пикс.
Высота : 400 пикс.
Соотношение сторон : 16:9
Частота кадров : 25,000 кадр/сек
Цветовое пространство : YUV
Подвыборка цветности : 4:2:0
Битовая глубина : 8 бит
Тип развёртки : Прогрессивная
Метод сжатия : С потерями
Бит/(Пиксели*Кадры) : 0.203
Размер потока : 253 Мбайт (91%)
Библиотека кодирования : XviD 64
Аудио
Идентификатор : 1
Формат : MPEG Audio
Версия формата : Version 1
Профиль формата : Layer 3
Режим : Joint stereo
Идентификатор кодека : 55
Идентификатор кодека/Подсказка : MP3
Продолжительность : 24 м.
Вид битрейта : Постоянный
Битрейт : 128 Кбит/сек
Каналы : 2 канала
Частота : 48,0 КГц
Метод сжатия : С потерями
Размер потока : 22,7 Мбайт (8%)
Выравнивание : Соединение по промежуткам
Продолжительность промежутка : 40 мс. (1,00 видеокадр)
Время предзагрузки промежутка : 504 ms
-Скриншоты:
       
       

Ещё скриншоты

       
       
       
       
       
       
       
Other forum [Profile] [PM]
Display posts from previous:    
Reply to topic

The time now is: Today 11:11

All times are GMT + 3 Hours



You cannot post new topics in this forum
You cannot reply to topics in this forum
You cannot edit your posts in this forum
You cannot delete your posts in this forum
You cannot vote in polls in this forum
You cannot attach files in this forum
You cannot download files in this forum