Today is a free download without charge Download

Ефросинья. Таёжная любовь / Сезон: 3 Серии: 226- из ??? (Максим Мокрушев) [2011-2013, Мелодрама, SATRip]

Reply to topic
 
Author
Message

Omen ®

Longevity: 8 years 11 months

Posts: 181086

Торрент-статистика

Post 24-Jan-2013 14:20

[Quote]

Ефросинья 3 / Таёжная любовь
Год выпуска: 2011-2013
Производство:кинокомпания «Мостелефильм»
Жанр: Драма
Продолжительность: 00:43:47
Субтитры: нет
Режиссёр: Максим Мокрушев
В ролях: Анастасия Макарова, Валерий Золотухин, Александр Клюквин, Ксения Энтелис
Описание: В глухой тайге, спрятавшись от мира, живет семья: Полина, Прохор и их двадцатидвухлетняя внучка Ефросинья. Когда-то давно влюбленный конвоир Прохор помог бежать политзаключенной Полине. Они укрылись в тайге в заброшенном домике охотников, и с тех пор держат связь с внешним миром только через местного егеря.
Тем временем, в тайгу по поручению бизнесмена Мартынова приезжает группа геологов - они должны найти секретное месторождение золота, на которое, как верят местные жители, наложено страшное проклятие. Среди геологов – Максим и влюбленная в него Татьяна. Но однажды ночью Максим видит купающуюся в водопаде Ефросинью. Появление девушки в столь глухом месте пробуждает в нем любопытство – он бросается на поиски прекрасной незнакомки. В лесу на Максима нападает медведь, но Прохор спасает его от неминуемой гибели и привозит в свой дом. С этого момента судьба Ефросинии резко меняется. Любовь, подлость, предательство, прощение, но, прежде всего - она узнает тайну своего рождения…

Качество: SATRip
Формат: AVI
Видео кодек: XviD
Аудио кодек: MP3
Видео: 720x400 (1.80:1), 25 fps, XviD build 50 ~1558 kbps avg, 0.22 bit/pixel
Аудио: 48 kHz, MPEG Layer 3, 2 ch, ~192.00 kbps avg
Сторонней рекламы нет!

MediaInfo

Общее
Полное имя : D:\ФИЛЬМЫ\Ефросинья 3 (176-200)\Efrosinja.Taezhnaja.lubov.(176.seriya).2012.XviD.SATRip.avi
Формат : AVI
Формат/Информация : Audio Video Interleave
Размер файла : 547 Мбайт
Продолжительность : 43 м.
Общий поток : 1760 Кбит/сек
Программа кодирования : VirtualDubMod 1.5.10.3 | www.virtualdub-fr.org || (build 2550/release)
Библиотека кодирования : VirtualDubMod build 2550/release
Видео
Идентификатор : 0
Формат : MPEG-4 Visual
Профиль формата : Advanced [email protected]
Параметр BVOP формата : 1
Параметр QPel формата : Нет
Параметр GMC формата : Без точки перехода
Параметр матрицы формата : Default (H.263)
Идентификатор кодека : XVID
Идентификатор кодека/Подсказка : XviD
Продолжительность : 43 м.
Битрейт : 1558 Кбит/сек
Ширина : 720 пикс.
Высота : 400 пикс.
Соотношение сторон : 16:9
Частота кадров : 25,000 кадр/сек
Цветовое пространство : YUV
Подвыборка цветности : 4:2:0
Битовая глубина : 8 бит
Тип развёртки : Прогрессивная
Метод сжатия : С потерями
Бит/(Пиксели*Кадры) : 0.216
Размер потока : 485 Мбайт (89%)
Библиотека кодирования : XviD 1.2.1 (UTC 2008-12-04)
Аудио
Идентификатор : 1
Формат : MPEG Audio
Версия формата : Version 1
Профиль формата : Layer 3
Режим : Joint stereo
Расширение режима : MS Stereo
Идентификатор кодека : 55
Идентификатор кодека/Подсказка : MP3
Продолжительность : 43 м.
Вид битрейта : Постоянный
Битрейт : 192 Кбит/сек
Каналы : 2 канала
Частота : 48,0 КГц
Метод сжатия : С потерями
Размер потока : 59,7 Мбайт (11%)
Выравнивание : Соединение по промежуткам
Продолжительность промежутка : 40 мс. (1,00 видеокадр)
Время предзагрузки промежутка : 504 ms
Библиотека кодирования : LAME3.98r
Настройки программы : -m j -V 4 -q 2 -lowpass 18.6 -b 192
Доп. информация: Спасибо igorlit за предоставленные материалы
Релиз: РиперАМ

Внимание ! Раздача ведётся путём добавления новых серий

Внимание! Раздача ведётся путём добавления новых серий; при каждом добавлении создётся новый торрент. Чтобы начать докачку новой серии, пользователям необходимо сделать следующее:
(1) остановить скачивание,
(2) удалить старый торрент у себя из клиента (старые серии удалять не надо),
(3) скачать новый торрент и запустить его у себя в клиенте вместо старого, при этом указать клиенту путь в старую папку куда и должно происходить скачивание новых серий.
Ваш клиент при этом должен произвести хеширование (проверку) старой папки (если не производит сам - помогите ему сделать это), и будет докачивать только те серии которых у вас ещё нет. Старые серии при этом не удаляются, а продолжают раздаваться!
Eсли вы уже удалили старые серии, то предотвратить повторную закачку старых серий можно, отжав галочку в соответсвующих местах при запуске нового торрента. По возможности, желательно не удалять старые серии как можно дольше чтобы релизёр не столько продолжал раздавать старые серии, а смог сконцентрироваться на новых.

Скриншоты

Other forum [Profile] [PM]
Display posts from previous:    
Reply to topic

The time now is: Today 11:27

All times are GMT + 3 Hours



You cannot post new topics in this forum
You cannot reply to topics in this forum
You cannot edit your posts in this forum
You cannot delete your posts in this forum
You cannot vote in polls in this forum
You cannot attach files in this forum
You cannot download files in this forum