Today is a free download without charge Download

Смерть в Венеции / Morte a Venezia / Death in Venice (Лукино Висконти / Luchino Visconti) [1971, Италия, Франция, драма, WEB-DL 720p] MVO + AVO + Sub Eng, Rus + Original Eng

Reply to topic
 
Author
Message

Omen ®

Longevity: 8 years 5 months

Posts: 181087

Торрент-статистика

Post 24-Jan-2013 14:20

[Quote]

Смерть в Венеции / Morte a Venezia / Death in Venice
Страна: Италия, Франция
Жанр: драма
Год выпуска: 1971
Продолжительность: 01:30:05-Перевод 1: Профессиональный (многоголосый закадровый)
Перевод 2: Авторский (одноголосый закадровый) С.Кузнецов
Cубтитры: английские, русские
Оригинальная аудиодорожка: английский-Режиссер: Лукино Висконти / Luchino Visconti-В ролях: Дирк Богард, Сильвана Мангано, Бьерн Андресен, Мариса Беренсен-Описание:
Переживающий духовный и творческий кризис композитор Густав фон Ашенбах приезжает весной 1911 года на курорт близ Венеции. Внезапно его поражает и очаровывает красота подростка Тадзио, сына польской аристократки. Смущенный своими чувствами, Ашенбах порывается уехать, но, к несчастью, заражается быстротечной вирусной инфекцией и последние мгновения жизни проводит на пляже, наблюдая за игрой и шалостями юного Тадзио…-Сэмпл: Скачать-Тип релиза: WEB-DL 720p
Контейнер: MKV-Видео: 1280x532 (2.40:1); 4036 Kbps; 23.976 fps; 0.247 bpp
Аудио 1: Russian; AC3; 48.0 KHz; 2ch; 192 Kbps
Аудио 2: Russian; AC3; 48.0 KHz; 2ch; 192 Kbps
Аудио 3: English; AAC; 48.0 KHz; 2ch; 160 Kbps
Формат субтитров: softsub (SRT)

MediaInfo

Format : Matroska
Format version : Version 2
File size : 4.21 GiB
Duration : 2h 10mn
Overall bit rate : 4 601 Kbps
Encoded date : UTC 2013-01-08 20:35:57
Writing application : mkvmerge v5.0.1 ('Es ist Sommer') built on Oct 9 2011 11:55:43
Writing library : libebml v1.2.2 + libmatroska v1.3.0
Video
ID : 1
Format : AVC
Format/Info : Advanced Video Codec
Format profile : [email protected]
Format settings, CABAC : No
Format settings, ReFrames : 2 frames
Codec ID : V_MPEG4/ISO/AVC
Duration : 2h 10mn
Width : 1 280 pixels
Height : 532 pixels
Display aspect ratio : 2.40:1
Frame rate mode : Constant
Frame rate : 23.976 fps
Color space : YUV
Chroma subsampling : 4:2:0
Bit depth : 8 bits
Scan type : Progressive
Language : English
Default : Yes
Forced : No
Color primaries : BT.709
Transfer characteristics : BT.709
Matrix coefficients : BT.709
Audio #1
ID : 2
Format : AC-3
Format/Info : Audio Coding 3
Mode extension : CM (complete main)
Format settings, Endianness : Big
Codec ID : A_AC3
Duration : 2h 10mn
Bit rate mode : Constant
Bit rate : 192 Kbps
Channel(s) : 2 channels
Channel positions : Front: L R
Sampling rate : 48.0 KHz
Bit depth : 16 bits
Compression mode : Lossy
Stream size : 180 MiB (4%)
Title : MVO
Language : Russian
Default : Yes
Forced : No
Audio #2
ID : 3
Format : AC-3
Format/Info : Audio Coding 3
Mode extension : CM (complete main)
Format settings, Endianness : Big
Codec ID : A_AC3
Duration : 2h 10mn
Bit rate mode : Constant
Bit rate : 192 Kbps
Channel(s) : 2 channels
Channel positions : Front: L R
Sampling rate : 48.0 KHz
Bit depth : 16 bits
Compression mode : Lossy
Stream size : 180 MiB (4%)
Title : AVO С.Кузнецов
Language : Russian
Default : No
Forced : No
Audio #3
ID : 4
Format : AAC
Format/Info : Advanced Audio Codec
Format profile : LC
Codec ID : A_AAC
Duration : 2h 10mn
Channel(s) : 2 channels
Channel positions : Front: L R
Sampling rate : 48.0 KHz
Compression mode : Lossy
Language : English
Default : No
Forced : No
Text #1
ID : 5
Format : UTF-8
Codec ID : S_TEXT/UTF8
Codec ID/Info : UTF-8 Plain Text
Language : Russian
Default : No
Forced : No
Text #2
ID : 6
Format : UTF-8
Codec ID : S_TEXT/UTF8
Codec ID/Info : UTF-8 Plain Text
Language : English
Default : No
Forced : No
Menu
00:00:00.000 : en:Credits.
00:04:07.000 : en:Venice Arrival.
00:08:12.000 : en:A Ride For Nothing.
00:14:03.000 : en:Hotel Des Bains.
00:17:41.000 : en:Until The Last Moment.
00:21:25.000 : en:Salon Crowd.
00:27:36.000 : en:A Boy And His Family.
00:31:14.000 : en:Beauty's Origins.
00:38:32.000 : en:On The Beach.
00:45:44.000 : en:Tadzio.
00:50:03.000 : en:Contaminated?
00:56:07.000 : en:Farewell Glance.
00:59:43.000 : en:Trunk Mishap.
01:03:19.000 : en:Family Memory.
01:06:36.000 : en:Inspired.
01:10:59.000 : en:No Need For Concern.
01:15:51.000 : en:Esmerelda.
01:19:43.000 : en:"I Love You."
01:22:18.000 : en:City Of Secrets.
01:25:52.000 : en:Sinister Serenade.
01:34:50.000 : en:Asiatic Cholera.
01:40:18.000 : en:With/Without Warning.
01:43:23.000 : en:Makeover.
01:46:56.000 : en:Failing Shadow.
01:54:12.000 : en:Stillborn Perfection.
01:57:38.000 : en:Deserted.
02:01:57.000 : en:Tadzio And Jasciu Fight.
02:05:12.000 : en:Death's Reach.
02:08:25.000 : en:End Credits.

Скриншоты

Other forum [Profile] [PM]
Similar theme
Forum Topic Author Torrent Replies Last Post
./templates/default/images/folder_dl.gif Техническая и научно-популярная литература Джина Колата | Грипп. В поисках смертельного вируса (2013) [PDF] UndegraundMen
1 | 0

0 | 616

1

2013-10-07 11:00
UndegraundMen Latest
./templates/default/images/folder_dl.gif Антология зарубежного кино Жажда смерти [Пенталогия] / Death Wish [Pentalogy] (Майкл Уиннер, Дж. Ли Томпсон, Аллан Голдштейн) [1974–1993, боевик, триллер, DVDRip] MVO, AVO, VO DED
1 | 0

1 | 3373

1

2015-11-13 22:52
DED Latest
Display posts from previous:    
Reply to topic

The time now is: Today 23:22

All times are GMT + 3 Hours



You cannot post new topics in this forum
You cannot reply to topics in this forum
You cannot edit your posts in this forum
You cannot delete your posts in this forum
You cannot vote in polls in this forum
You cannot attach files in this forum
You cannot download files in this forum