Today is a free download without charge Download

Джесси Стоун-Правосудие Стоуна / Stone Cold (Роберт Хармон / Robert Harmon) [2005, США, триллер, драма, криминал, детектив, WEB-DL 720p] DVO + Sub Eng + Original Eng

Reply to topic
 
Author
Message

Omen ®

Longevity: 8 years 5 months

Posts: 181087

Торрент-статистика

Post 24-Jan-2013 14:20

[Quote]

Джесси Стоун-Правосудие Стоуна / Stone Cold
Страна: США
Жанр: триллер, драма, криминал, детектив
Год выпуска: 2005
Продолжительность: 01:26:01
Перевод: Профессиональный (двухголосый закадровый)
Cубтитры: английские
Оригинальная аудиодорожка: английский
Режиссер: Роберт Хармон / Robert Harmon
В ролях: Том Селлек, Джейн Адамс, Рег Роджерс, Виола Дэвис, Алексис Дзена, Кол Саддаф, Полли Шеннон, Стивен МакХэтти, Шоун Робертс, Алекс Хаус
Описание: Подобно тому, как Святой Петр охраняет двери Рая небесного, шеф полиции Джесс Стоун оберегает покой граждан Рая земного — маленького городка на севере США. Пост не такой высокий как у апостола, но не менее ответственный. И когда по округе прокатывается эпидемия необъяснимых и на первый взгляд не связанных между собой убийств, только невозмутимый как камень и хитроумный как лис детектив Стоун способен разгадать их тайну и вычислить злодея.
Однако даже он поначалу не может найти зацепки в этом мрачном деле — пока на его пороге не появляется 16-летняя девушка, чье заявление об изнасиловании неожиданным и парадоксальным способом проливает свет на кровавые события последних дней…


Сэмпл: http://multi-up.com/821275
Тип релиза: WEB-DL 720p
Контейнер: MKV
Видео: MPEG-4 AVC, 1278x720, 4016 кбит/сек, 23.976 fps
Аудио: 48 kHz, AC3 Dolby Digital, 2/0 (L,R) ch, ~192 kbps DVO
Аудио 2: 48 kHz, AC3 Dolby Digital, 3/2 (L,C,R,l,r) + LFE ch, ~384 kbps original
Формат субтитров: softsub (SRT)

MediaInfo

2005.ДЖЕССИ СТОУН-ПРАВОСУДИЕ СТОУНА (MVO).720p.WEB-DL.DD5.1.H.264-lord_i_74.mkv
Формат : Matroska
Версия формата : Version 2
Размер файла : 2,82 Гбайт
Продолжительность : 1 ч. 26 м.
Общий поток : 4685 Кбит/сек
Дата кодирования : UTC 2013-01-13 08:06:56
Программа кодирования : mkvmerge v5.0.1 ('Es ist Sommer') built on Oct 9 2011 11:55:43
Библиотека кодирования : libebml v1.2.2 + libmatroska v1.3.0
Видео
Идентификатор : 1
Формат : AVC
Формат/Информация : Advanced Video Codec
Профиль формата : [email protected]
Параметр CABAC формата : Нет
Параметр ReFrames формата : 2 кадра
Идентификатор кодека : V_MPEG4/ISO/AVC
Продолжительность : 1 ч. 26 м.
Битрейт : 4016 Кбит/сек
Ширина : 1278 пикс.
Высота : 720 пикс.
Соотношение сторон : 16:9
Частота кадров : 23,976 кадр/сек
Цветовое пространство : YUV
Подвыборка цветности : 4:2:0
Битовая глубина : 8 бит
Тип развёртки : Прогрессивная
Бит/(Пиксели*Кадры) : 0.182
Размер потока : 2,41 Гбайт (86%)
Заголовок : Jesse.Stone.Stone.Cold.2005.720p.WEB-DL.DD5.1.H.264-BS
Язык : English
Основные цвета : BT.709-5, BT.1361, IEC 61966-2-4, SMPTE RP177
Характеристики трансфера : BT.709-5, BT.1361
Коэффициенты матрицы : BT.709-5, BT.1361, IEC 61966-2-4 709, SMPTE RP177
Аудио #1
Идентификатор : 2
Формат : AC-3
Формат/Информация : Audio Coding 3
Расширение режима : CM (complete main)
Идентификатор кодека : A_AC3
Продолжительность : 1 ч. 26 м.
Вид битрейта : Постоянный
Битрейт : 192 Кбит/сек
Каналы : 2 канала
Расположение каналов : Front: L R
Частота : 48,0 КГц
Битовая глубина : 16 бит
Метод сжатия : С потерями
Размер потока : 118 Мбайт (4%)
Заголовок : MVO R5
Язык : Russian
Аудио #2
Идентификатор : 3
Формат : AC-3
Формат/Информация : Audio Coding 3
Расширение режима : CM (complete main)
Идентификатор кодека : A_AC3
Продолжительность : 1 ч. 26 м.
Вид битрейта : Постоянный
Битрейт : 384 Кбит/сек
Каналы : 6 каналов
Расположение каналов : Front: L C R, Side: L R, LFE
Частота : 48,0 КГц
Битовая глубина : 16 бит
Метод сжатия : С потерями
Размер потока : 236 Мбайт (8%)
Язык : English
Текст
Идентификатор : 4
Формат : UTF-8
Идентификатор кодека : S_TEXT/UTF8
Идентификатор кодека/Информация : UTF-8 Plain Text
Заголовок : sub
Язык : English
Меню
00:00:00.000 : en:Chapter 1
00:03:53.000 : en:Chapter 2
00:05:35.000 : en:Chapter 3
00:07:49.000 : en:Chapter 4
00:11:34.000 : en:Chapter 5
00:15:20.000 : en:Chapter 6
00:17:35.000 : en:Chapter 7
00:19:54.000 : en:Chapter 8
00:22:54.000 : en:Chapter 9
00:26:30.000 : en:Chapter 10
00:30:35.000 : en:Chapter 11
00:33:58.000 : en:Chapter 12
00:37:07.000 : en:Chapter 13
00:40:39.000 : en:Chapter 14
00:42:16.000 : en:Chapter 15
00:45:47.000 : en:Chapter 16
00:49:08.000 : en:Chapter 17
00:50:40.000 : en:Chapter 18
00:53:38.000 : en:Chapter 19
00:55:53.000 : en:Chapter 20
01:00:28.000 : en:Chapter 21
01:03:13.000 : en:Chapter 22
01:05:37.000 : en:Chapter 23
01:07:54.000 : en:Chapter 24
01:11:41.000 : en:Chapter 25
01:16:00.000 : en:Chapter 26
01:19:49.000 : en:Chapter 27
01:23:01.000 : en:Chapter 28

Скриншоты

Other forum [Profile] [PM]
Display posts from previous:    
Reply to topic

The time now is: Today 02:24

All times are GMT + 3 Hours



You cannot post new topics in this forum
You cannot reply to topics in this forum
You cannot edit your posts in this forum
You cannot delete your posts in this forum
You cannot vote in polls in this forum
You cannot attach files in this forum
You cannot download files in this forum