Today is a free download without charge Download

Разрушители легенд / MythBusters (Сезон 10, эпизод 11). К вопросу о дуэлях / Duel Dilemmas (2012) SATRip [Discovery]

Reply to topic
 
Author
Message

Omen ®

Longevity: 7 years 10 months

Posts: 181087

Торрент-статистика

Post 24-Jan-2013 11:12

[Quote]

- Разрушители легенд / MythBusters (Сезон 10, эпизод 11). К вопросу о дуэлях / Duel Dilemmas (2012) SATRip [Discovery] - Режиссер / Телекомпания: Discovery
Русское название: Разрушители легенд
Оригинальное название: MythBusters
Год выпуска: 2012
Жанр: Познавательное шоу
Описание:
«Разрушители легенд» (англ. MythBusters) — американская научно-популярная телепередача на канале Discovery Channel. Передачу ведут специалисты по спецэффектам Джейми Хайнеман и Адам Севидж, использующие свои навыки и опыт для экспериментальной проверки различных баек, слухов, городских легенд и других порождений популярной культуры. Съёмки передачи обычно проходят в области залива Сан-Франциско.
Каждый из часовых выпусков «Разрушители легенд» посвящён двум или трём городским легендам, распространённым убеждениям или слухам из интернета. Основной миф часто требует всесторонней подготовки и полигона, кроме него в передачу также включают один-два не столь хлопотных в плане подготовки и проведения мифа. На сегодняшний день, однако, три эксперимента (35, 40, и 46) были настолько сложными, что заняли весь час, отведённый на передачу.
В выпуске:
1. Адам и Джейми проверяют может ли человек, вооруженный ножом выиграть поединок у противника с пистолетом?
2. Кари, Грант и Тори проверяют существовала ли когда-нибудь двухступенчатая ракета, известная как огнедышащий дракон?
Ведущий: Adam Savage, Jamie Hyneman, Kari Byron, Grant Imahara, Tory Belleci
Режиссёр: Steve Christiansen, Lauren Williams
Перевод: Профессиональный (многоголосый, закадровый) Discovery
Продолжительность: ~ 00:43:48
Видеокодек: XviD
Битрейт видео: ~1699 kb/s
Размер кадра: 720 x 400
Качество видео: SATRip
Аудиокодек: MP3, 2ch.
Битрейт аудио: 128 kb/s

MediaInfo

Формат : AVI
Формат/Информация : Audio Video Interleave
Размер файла : 575 Мбайт
Продолжительность : 43 м.
Общий поток : 1834 Кбит/сек
Программа кодирования : TMPGEnc Video Mastering Works 5 Version. 5.0.6.38
Библиотека кодирования : TMPGEnc Video Mastering Works 5 Version. 5.0.6.38
Видео
Идентификатор : 0
Формат : MPEG-4 Visual
Профиль формата : Advanced [email protected]
Параметр BVOP формата : 2
Параметр QPel формата : Нет
Параметр GMC формата : Без точки перехода
Параметр матрицы формата : Default (H.263)
Режим смешивания : Сжатый битовый поток
Идентификатор кодека : XVID
Идентификатор кодека/Подсказка : XviD
Продолжительность : 43 м.
Битрейт : 1699 Кбит/сек
Ширина : 720 пикселей
Высота : 400 пикселей
Соотношение сторон : 16:9
Частота кадров : 25,000 кадров/сек
Цветовое пространство : YUV
Субдискретизация насыщенности : 4:2:0
Битовая глубина : 8 бит
Тип развёртки : Прогрессивная
Метод сжатия : С потерями
Бит/(Пиксели*Кадры) : 0.236
Размер потока : 532 Мбайт (93%)
Библиотека кодирования : XviD 64
Аудио
Идентификатор : 1
Формат : MPEG Audio
Версия формата : Version 1
Профиль формата : Layer 3
Режим : Joint stereo
Расширение режима : MS Stereo
Идентификатор кодека : 55
Идентификатор кодека/Подсказка : MP3
Продолжительность : 43 м.
Вид битрейта : Постоянный
Битрейт : 128 Кбит/сек
Каналы : 2 канала
Частота : 48,0 КГц
Метод сжатия : С потерями
Размер потока : 40,1 Мбайт (7%)
Выравнивание : Соединение по промежуткам
Продолжительность промежутка : 250 мс. (6,25 видеокадров)
Время предзагрузки промежутка : 192 мс.
Скриншоты:                    
Other forum [Profile] [PM]
Display posts from previous:    
Reply to topic

The time now is: Today 10:41

All times are GMT + 3 Hours



You cannot post new topics in this forum
You cannot reply to topics in this forum
You cannot edit your posts in this forum
You cannot delete your posts in this forum
You cannot vote in polls in this forum
You cannot attach files in this forum
You cannot download files in this forum