Сегодня идет свободное скачивание без начисления Download

Аллегро с огнем (1979) [H.264]DVDRip

Ответить на тему
 
Автор
Сообщение

Omen ®

Стаж: 6 лет

Сообщений: 184329

Торрент-статистика

Пост 24-Янв-2013 11:12

[Цитировать]

-Аллегро с огнем (1979) [H.264] DVDRip- Русское название: Аллегро с огнем
Год выпуска: 1979
Жанр: Военный, Драма
Описание фильма:
В июне 1941 года фашисты попытались заблокировать Черноморский флот, забросав фарватер новыми сверхсекретными магнитно-акустическими минами. Для обезвреживания этого грозного оружия была создана особая группа профессионалов-минеров, которые ценой своей жизни выполнили сложнейшее задание командования...
Режиссер: Владимир Стрелков
Актеры: Владимир Заманский, Виктор Михайлов (II), Валентин Голубенко, Жорж Новицкий, Сергей Лосев, Сергей Полежаев, Наум Кавуновский, Людмила Ярошенко, Юрий Богданов, Федор Валиков, Василий Векшин, Виктор Павловский, Анатолий Быстров, Евгений Казаков, Аркадий Свидерский
Продолжительность: 01:25:47

Видеокодек: MPEG-4 AVC/H.264
Формат: mkv
Битрейт видео: ~2999 kbps
Размер кадра: 736х416 (16:9)
Качество видео: DVDRip
Аудиокодек: AC3, 6 channels, Front: L C R, Side: L R, LFE
Битрейт аудио: ~384.00 kbps

MI

Общее
Уникальный идентификатор : 245112433389445621911920663477620096243 (0xB866F0015A34D2AFAFB61A5F7134BCF3)
Полное имя : C:\Users\1\Downloads\Allegro_s_ognem_.mkv
Формат : Matroska
Версия формата : Version 2
Размер файла : 2,03 Гбайт
Продолжительность : 1 ч. 25 м.
Общий поток : 3385 Кбит/сек
Дата кодирования : UTC 2012-12-30 12:00:31
Программа кодирования : mkvmerge v5.8.0 ('No Sleep / Pillow') built on Sep 2 2012 15:37:04
Библиотека кодирования : libebml v1.2.3 + libmatroska v1.3.0
Видео
Идентификатор : 1
Формат : AVC
Формат/Информация : Advanced Video Codec
Профиль формата : [url=mailto:[email protected]][email protected][/url]
Параметр CABAC формата : Да
Параметр ReFrames формата : 5 кадров
Идентификатор кодека : V_MPEG4/ISO/AVC
Продолжительность : 1 ч. 25 м.
Битрейт : 2999 Кбит/сек
Ширина : 736 пикселей
Высота : 416 пикселей
Соотношение сторон : 16:9
Частота кадров : 25,000 кадров/сек
Цветовое пространство : YUV
Субдискретизация насыщенности : 4:2:0
Битовая глубина : 8 бит
Тип развёртки : Прогрессивная
Бит/(Пиксели*Кадры) : 0.392
Размер потока : 1,76 Гбайт (87%)
Библиотека кодирования : x264 core 125 r2208 d9d2288
Настройки программы : cabac=1 / ref=5 / deblock=1:-2:-1 / analyse=0x3:0x113 / me=umh / subme=8 / psy=1 / psy_rd=1.00:0.20 / mixed_ref=1 / me_range=24 / chroma_me=1 / trellis=1 / 8x8dct=1 / cqm=0 / deadzone=21,11 / fast_pskip=1 / chroma_qp_offset=-3 / threads=6 / lookahead_threads=1 / sliced_threads=0 / nr=0 / decimate=0 / interlaced=0 / bluray_compat=0 / constrained_intra=0 / bframes=3 / b_pyramid=2 / b_adapt=2 / b_bias=0 / direct=3 / weightb=1 / open_gop=0 / weightp=2 / keyint=250 / keyint_min=25 / scenecut=40 / intra_refresh=0 / rc_lookahead=50 / rc=2pass / mbtree=1 / bitrate=2999 / ratetol=1.0 / qcomp=0.60 / qpmin=0 / qpmax=69 / qpstep=4 / cplxblur=20.0 / qblur=0.5 / vbv_maxrate=50000 / vbv_bufsize=50000 / nal_hrd=none / ip_ratio=1.40 / aq=1:1.00
Default : Да
Forced : Нет
Аудио
Идентификатор : 2
Формат : AC-3
Формат/Информация : Audio Coding 3
Расширение режима : CM (complete main)
Идентификатор кодека : A_AC3
Продолжительность : 1 ч. 25 м.
Вид битрейта : Постоянный
Битрейт : 384 Кбит/сек
Каналы : 6 каналов
Расположение каналов : Front: L C R, Side: L R, LFE
Частота : 48,0 КГц
Битовая глубина : 16 бит
Метод сжатия : С потерями
Размер потока : 236 Мбайт (11%)
Default : Да
Forced : Нет
Скриншоты:
         
Вне форума [Профиль] [ЛС]
Показать сообщения:    
Ответить на тему

Текущее время: Сегодня 16:18

Часовой пояс: GMT + 3



Вы не можете начинать темы
Вы не можете отвечать на сообщения
Вы не можете редактировать свои сообщения
Вы не можете удалять свои сообщения
Вы не можете голосовать в опросах
Вы не можете прикреплять файлы к сообщениям
Вы не можете скачивать файлы