Today is a free download without charge Download

Отшельник / Redemption: A Mile from Hell (Роберт Конуэй /Robert Conway) [2009] [США] (вестерн) [DVD5 R5] [PAL 16:9] «Lizard Cinema Trade»

Reply to topic
 
Author
Message

nsa1977 ®

Gender:

Longevity: 9 years 4 months

Posts: 1470

Location: Пенза

Торрент-статистика

Post 07-May-2011 02:38

[Quote]

-Отшельник / Redemption: A Mile from Hell-«A Mile From Hell» -Страна: США
Студия: Cas-Mor Productions, Gallery Films
Жанр: вестерн
Год выпуска: 2009
Мировая премьера: 10 февраля 2009
Дата выхода DVD: 15 марта 2011, «Lizard Cinema Trade»
Продолжительность: 01:29:22
Перевод: Профессиональный (многоголосый закадровый) [Лицензия]
Cубтитры: русские
Оригинальная аудиодорожка: английский-Режиссер: Роберт Конуэй / Robert Conway-В ролях: Дастин Лейтон, Том Нога, Клинт Джеймс, Грэйди Хилл, Кэнди Стэнтон, Санфорд Гиббонс, Peter Sherayko, Исаак Farm, Энтони Касанова-Описание: Бывший профессиональный стрелок, Фрэнк, отойдя от дел, живет уединенно, избегая людей. Но когда его незаслуженно обвиняют в убийстве, ему приходится снова взять в руки оружие. Преследуемый шерифом, Фрэнк, ведет свое собственное расследование и выходит на след настоящих преступников.-Бонусы: нет- -Качество: DVD5 R5
Формат: DVD-Video
Видео кодек: MPEG2
Аудио кодек: AC3
Видео: PAL 16:9 (720x576(0.549)) MPEG Video,25,000 кадр/сек, 5690 Кбит/сек
Аудио #1: Russian (Dolby AC3, 6 ch) 384 Кбит/сек, 48,0 КГц
Аудио #2: Russian (Dolby AC3, 2 ch) 192 Кбит/сек, 48,0 КГц
Аудио #3: English (Dolby AC3, 2 ch) 192 Кбит/сек, 48,0 КГц-
-

DVDInfo

Title: O
Size: 4.36 Gb ( 4 570 982 KBytes ) - DVD-5
Enabled regions: 1, 2, 3, 4, 5, 6, 7, 8
VTS_01 :
Play Length: 00:00:26
Video: PAL 4:3 (720x576) VBR
Audio:
Russian (Dolby AC3, 6 ch)
English (Dolby AC3, 6 ch)
English (Dolby AC3, 6 ch)
VTS_02 :
Play Length: 01:29:22
Video: PAL 16:9 (720x576) VBR, Auto Pan&Scan, Auto Letterboxed
Audio:
Russian (Dolby AC3, 6 ch)
Russian (Dolby AC3, 2 ch)
English (Dolby AC3, 2 ch)
Subtitles:
Russian
Menu Video:
PAL 4:3 (720x576) VBR
Menu Subtitles:
Not specified
Menu English Language Unit :
Root Menu
Chapter (PTT) Menu
Subpicture Menu
Audio Menu

MediaInfo

Общее
Полное имя : H:\Новинки 2011\Otshelnik.2009.DVD5\VIDEO_TS\VTS_02_1.VOB
Формат : MPEG-PS
Размер файла : 1024 Мбайт
Продолжительность : 21 м.
Общий поток : 6589 Кбит/сек
Видео
Идентификатор : 224 (0xE0)
Формат : MPEG Video
Версия формата : Version 2
Профиль формата : [email protected]
Параметр BVOP формата : Да
Параметр матрицы формата : По умолчанию
Продолжительность : 21 м.
Вид битрейта : Переменный
Битрейт : 5690 Кбит/сек
Номинальный битрейт : 7700 Кбит/сек
Ширина : 720 пикс.
Высота : 576 пикс.
Соотношение сторон : 16:9
Частота кадров : 25,000 кадр/сек
Стандарт вещания : PAL
Цветовое пространство : YUV
Подвыборка цветности : 4:2:0
Битовая глубина : 8 бит
Тип развёртки : Чересстрочная
Порядок развёртки : Верхнее поле первое
Метод сжатия : С потерями
Бит/(Пиксели*Кадры) : 0.549
Размер потока : 884 Мбайт (86%)
Аудио #1
Идентификатор : 189 (0xBD)-128 (0x80)
Формат : AC-3
Формат/Информация : Audio Coding 3
Расширение режима : CM (complete main)
Режим смешивания : DVD-Video
Продолжительность : 21 м.
Вид битрейта : Постоянный
Битрейт : 384 Кбит/сек
Канал(ы) : 6 канала(ов)
Расположение каналов : Front: L C R, Side: L R, LFE
Частота : 48,0 КГц
Битовая глубина : 16 бит
Метод сжатия : С потерями
Задержка видео : -40 мс.
Размер потока : 59,7 Мбайт (6%)
Аудио #2
Идентификатор : 189 (0xBD)-129 (0x81)
Формат : AC-3
Формат/Информация : Audio Coding 3
Расширение режима : CM (complete main)
Режим смешивания : DVD-Video
Продолжительность : 21 м.
Вид битрейта : Постоянный
Битрейт : 192 Кбит/сек
Канал(ы) : 2 канала(ов)
Расположение каналов : Front: L R
Частота : 48,0 КГц
Битовая глубина : 16 бит
Метод сжатия : С потерями
Задержка видео : -40 мс.
Размер потока : 29,8 Мбайт (3%)
Аудио #3
Идентификатор : 189 (0xBD)-130 (0x82)
Формат : AC-3
Формат/Информация : Audio Coding 3
Расширение режима : CM (complete main)
Режим смешивания : DVD-Video
Продолжительность : 21 м.
Вид битрейта : Постоянный
Битрейт : 192 Кбит/сек
Канал(ы) : 2 канала(ов)
Расположение каналов : Front: L R
Частота : 48,0 КГц
Битовая глубина : 16 бит
Метод сжатия : С потерями
Задержка видео : -40 мс.
Размер потока : 29,8 Мбайт (3%)

Скриншоты меню

   
    

_________________


Last edited by nsa1977 on 2011-05-07 02:38; edited 1 time in total
Other forum [Profile] [PM]

Dracula

Longevity: 6 years

Posts: 10636

Торрент-статистика

Post 06-Jul-2011 15:41 (after 1 month 30 days)

Топик был перенесен из форума Фильмы 2006-2010 в форум Зарубежное кино (DVD)

Delia
 
Display posts from previous:    
Reply to topic

The time now is: Today 08:25

All times are GMT + 3 Hours



You cannot post new topics in this forum
You cannot reply to topics in this forum
You cannot edit your posts in this forum
You cannot delete your posts in this forum
You cannot vote in polls in this forum
You cannot attach files in this forum
You cannot download files in this forum